&title=Rockefeller Street (Nightcore Mix)
&artist=Getter Jaani
&first=0.34
&des=speckles
&lv_5=13+
&inote_5={8}(162.55)4,5,6,7,{2}2V47[8:1],
{8}6,5,4,3h[8:1],7h[8:1],2h[8:1],6h[8:1],3h[8:1],
5,5,1,1,{2}6V42[8:1],
{8}1,6,2,7,4V28[8:1],5,6,7,
{4}5/3xh[4:1],8,7/2h[4:1],5,
4-1-4[4:1],4<8[4:1],{8}8>4[4:1],8,5,5h[8:3],
{4},2,6/3h[4:1],8,
5V31[4:1],1V75[4:1],{8}5v2[4:1],5,8,7h[8:3],
{4},3,5/2h[4:1],7,
5-8[4:1],{8}8V64[4:1],2,4-8[4:1],3,2,1,
{4}2h[4:1],6,8/4h[4:1],6,
1v6[4:1],6<1[4:1],{8}1>4[4:1],5,6,5,
{4}6h[4:1],1,6/3h[4:1],8,
7-1-7[4:1],{8}7<4[4:1],3,4v7[4:1],3,2,2,
{4}2h[4:1],5,1/6h[4:1],4,
3>1>3[4:1],{8}3-8[4:1],7,8-4[4:1],7,6,5h[8:3],
{4},8,6/2h[4:1],8,
5-1[4:1],1<6[4:1],{8}6<1[4:1],4,3,2,
{4}2h[4:1],5,8/3h[4:1],6,
{8}4/5,4/5,3/2,1/8,7/6,5/4,4/5,4/5,
7b-5b[8:1]/2b-4b[8:1],8/1,{4}2b/7b,{16}1,8,1,8,{8}1,6/3,
{16}5,4,5,4,{8}5,7/3,7,7/2,7,7/1,
{16}7,6,{8}5,2/7,6,{16}4,3,4,3,{8}4,7/8,
{16}5,6,5,6,{8}5,2/4,2,2/6,2,2/8,
{16}2,3,{8}4,2/7,6,{16}8,7,8,7,{8}8,1/6,
{16}3,4,3,4,{8}3,5/2,5,3/5,5,5/1,
{16}5,6,{8}7,4/7,1/8,6-2[8:1]/3-7[8:1],5/4,{4}6/3,
{16}1,8,1,8,{8}1,4/5,3/4,5/6,{4}5-7[8:1]/4-8[8:1],
{16}A5/A4/5-1[8:1]/4-2[8:1],A6/C,{8}A7/A8,{16}A5/A4/5-7[8:1]/4-8[8:1],C/A3,{8}A2/A1,{16}A5/A4/5-1[8:1]/4-2[8:1],C/A6,{8}A7/A8,{16}5/4/A5/A4,A3/C,{8}A2/A1,
5/4,8,6/5,1,4/3,6,{32}4/7,3,2,1,{8},7/8,
6,5/4,3,2/1,7,8/1,2,
{4}3h[8:1]/5h[8:1],6h[8:1]/4h[8:1],3h[8:1]/5h[8:1],6-8[8:1]/5-1[8:1],
{16}A6/A5/6-2[8:1]/5-3[8:1],A7/C,{8}A8/A1,{16}A6/A5/6-8[8:1]/5-1[8:1],C/A4,{8}A3/A2,{16}A6/A5/6-2[8:1]/5-3[8:1],C/A7,{8}A8/A1,{16}6/5/A6/A5,A4/C,{8}A3/A2,
5/6,1,3/4,8,5/6,1,{32}5/2,6,7,8,{8},2/1,
3,4/5,6,7/8,2,1/8,7,
{4}5/4h[4:1],{8}8,7,{4}7/1h[4:1],4,
6b/8b,6/8,{8}7-5[8:1],{16}7,8,{4}7,
3/4,1/2,{8}5-2[8:1],{16}5,4,{4}5,
6/5,7/8,{8}2-5[8:1],{16}2,1,{4}2,
7b/8b,6/5,{8}3-8[8:1],{16}3,4,{4}3,
{8}4,5,6,6,6,3,3,3,
{4}6-1[4:1],1-5[4:1],{8}5-8[4:1],4,3,3h[8:3],
{4},5,7/5h[4:1],2,
8v2[4:1],2>5[4:1],{8}1,1,2,3h[8:3],
{4},6,4/5h[4:1],{8}1,7,
{4}7-1-7[4:1],7<4[4:1],{8}4<7[4:1],3,3,2,
{4}4h[4:1],1,3/6h[4:1],5,
{8},8/1,1/8,1/8,3/4,4/5,5/6,7/2,
3b-8b[8:1]/6b-1b[8:1],7/2,{4}3/3b/6b,{16}4,5,4,5,{8}4,7/2,
{16}8,1,8,1,{8}8,6/2,6,6/3,6,6/4,
{16}6,7,{8}8,3/6,7,{16}1,2,1,2,{8}1,6/5,
{16}8,7,8,7,{8}8,3/1,3,3/7,3,3/5,
{16}3,2,{8}1,3/6,7,{16}5,6,5,6,{8}5,4/7,
{16}2,1,2,1,{8}2,8/3,8,2/8,8,8/4,
{16}8,7,{8}6,1/6,5/4,7-3[8:1]/2-6[8:1],8/1,{4}7/2,
{16}4,5,4,5,{8}4,1/8,2/1,8/7,{4}5-7[8:1]/4-8[8:1],
{16}A5/A4/5-1[8:1]/4-2[8:1],A6/C,{8}A7/A8,{16}A5/A4/5-7[8:1]/4-8[8:1],C/A3,{8}A2/A1,{16}A5/A4/5-1[8:1]/4-2[8:1],C/A6,{8}A7/A8,{16}5/4/A5/A4,A3/C,{8}A2/A1,
4/5,2,3/4,7,5/6,3,{32}5/2,6,7,8,{8},2/1,
3,4/5,6,7/8,2,1/8,7,
{4}6h[8:1]/4h[8:1],3h[8:1]/5h[8:1],6h[8:1]/4h[8:1],4-6[8:1]/3-7[8:1],
{16}A4/A3/4-8[8:1]/3-1[8:1],A5/C,{8}A6/A7,{16}A4/A3/4-6[8:1]/3-7[8:1],C/A2,{8}A1/A8,{16}A4/A3/4-8[8:1]/3-1[8:1],C/A5,{8}A6/A7,{16}4/3/A4/A3,A2/C,{8}A1/A8,
4/3,7,6/5,2,4/3,6,{32}4/7,3,2,1,{8},7/8,
6,5/4,3,2/1,7,8-4[8:1]/1-5[8:1],2/7,
{4}8/1,{8}1/2,1/2,{16}4,6,4,5,3,5,3,4,
{4}2b>5[8:1],{16}2/5,6,7,8,{4}1<6[8:1],{16}1/5,4,3,2,
{4}1>4[8:1],{16}1/4,5,6,7,{8}8-5[8:1],{16}1,1,{8}8,4,
3b,4,7/8,4,5/6,2,4/3,7,
3/6,6,6/4,6,6/1,1,1/5,1,
1/8,6,{32}4/5,3,2,1,{8}8,6,4,{32}4/3,5,6,7,{8}8,
4,2,{32}3/4,2,1,8,{8}7,6,3/4,{32}3/4,5,6,7,{8}8,
5b/6b,2,4/5,7,3/4,6,8/7,3,
{4}2/1h[8:1],5/8h[8:1],2/1h[8:1],5/8h[8:1],
4,{16}5,6,{8}4h[8:3],{4},{16}5,3,{8}6h[8:3],
{4},{16}5,6,{8}4h[8:3],{4},{16}5,4,{8}3h[8:1],
{24}{6}5,{12}6,5,,3,{4}4,{12}7,,1,
{6}2,{12}5,4,,6,5,4,3,4,{6},{4}6,
{16}8,7,{8}1h[8:3],{4},{16}8,2,{8}7h[8:3],
{4},{16}8,7,{8}1h[8:3],{4},{16}8,1,{8}2h[8:1],
{24}{6}8,{12}7,8,,2,{4}1,{12}6,,4,
{6}3,{12}8,1,,5,6,4,3,5-7[8:1]/4-8[8:1],{6},{16}A5/A4/5-1[8:1]/4-2[8:1],
A6/C,{8}A7/A8,{16}A5/A4/5-7[8:1]/4-8[8:1],C/A3,{8}A2/A1,{16}A5/A4/5-1[8:1]/4-2[8:1],C/A6,{8}A7/A8,{16}5/4/A5/A4,A3/C,{8}A2/A1,
4/5,2,3/4,7,5/6,3,{32}5/2,6,7,8,{8},2/1,
3,4/5,6,7/8,2,1/8,7,
{4}6h[8:1]/4h[8:1],3h[8:1]/5h[8:1],6h[8:1]/4h[8:1],3-1[8:1]/4-8[8:1],
3-7[8:1]/4-6[8:1],3-1[8:1]/4-8[8:1],3-7[8:1]/4-6[8:1],3/4,
{8}5/4,7,6/5,2,4/3,6,{32}4/7,3,2,1,{8},7/8,
6,5/4,3,2/1,7,8-4[8:1]/1-5[8:1],2/7,
{4}8/1,{16}4,5,4,5,3,6,{8}3,8-4[8:1]/1-5[8:1],1/8,
{4}1>4[8:1]/8<5[8:1],8v3[8:1]/1v6[8:1],8v5[8:1]/1v4[8:1],1/8,
{8}7/8,4,2/3,6,7/8,4,{4}1/8-5[8:1],
{8}8/3-8[8:1],2,3/5-1[8:1],6,5/2-6[8:1],3,{4}2/8-5b[8:1],
8b/3b-1b[8:1],3b/7b-4b[8:1],7b/8bw4b[8:1],8-6[8:1]*-2[8:1],
8-5[8:1]*-3[8:1],8<4[8:1]*>4[8:1],{2}8-5[8:1]*-3[8:1],
{8}2/1-7[8:1],3,1-3[8:1],5,1-5[8:1],6,{4}1,
{8}8/1,6,8/1,5,3/7,4,6/2,7/3,
{32}8/4/A8f/A4f,3/7,2/6,5/1,
