&title=KISKIL-LILLA
&artist=Laur
&first=0.08
&lv_5=14+
&des_5=Mondlichtzhong
&inote_5=
(280){4},{2},,,{8}7,
6,
5pp8[2:3],{4},{8}4h[8:3],{2},{4}3,
2,1,2,
{8}3/7,{4},{8}4/8,{4},1<6[2:1]/5>2[2:1],
,,,{8}1/8h[4:1],2,
{4}3p5[4:3],{2},{4}8-4[8:1],
8,{8}1,1,{4},2v5[8:1]/8v5[8:1],
{16}2-7-4-1b[2:3]/8-3-6-1b[2:3],C,{8}A5,{4},,,,,,,{16}E2,
B2,E3,E1,B8,E8,B3,E4,B4,B7,E7,B6,E5,D5,E6,D6,
4,3,2,1,5,6,7,8,{2}Ch[4:1],
{16}E6,B6,E7,E5,B4,E4,B7,E8,B8,B3,E3,B2,E1,D1,E2,D2,
{24}7bx,6x,5x,4x,{12},{24}1bx,2x,3x,4x,{12},{24}8bx,7x,6x,5x,{12},{4}2bx,
7-5-1-6[4:5]*-2-8-4[4:5],A7,,,,,,{16}3,
4,3,4,
{4}3-1-5-2[4:5]*-6-4-8[4:5],A3,{2},,,{8}2,
3/4,,5,{4}6h[8:3],{8}4,3h[8:3],
,7,{4}8h[8:3],{8}2,1h[8:3],{4},{8}6,
7/8,,1,{4}2h[8:3],{8}8,7h[8:3],
,3,{4}4h[8:3],{8}6,5h[8:3],{4},{2}3bxh[8:3],
{6}B8,B3,E7,
E2,B5,E3,Ch[4:1],{3},{2}2bxh[8:3],
{6}B5,B2,E7,
{24}E4,A4,{12},{24}B8,B7,{12},{24}E3,B3,{12},{2}Ch[4:1],
{4}3-5-2-8-4[2:3],{2},{4}1,
{2}8,{4}7,6,
{16}5,4,5,4,6,3,6,3,7,2,7,2,8,1,8,1,
E8,E7,E6,E2,E3,E4,8x,7x,6x,1x,2x,3x,{4}5xs1[8:1]/4xz8[8:1],
4b/5b,{8}2>5[8:1],2,8-4[8:1],8,1,1,
6,6,4,4,{16}6,5,{8}6,{16}3,4,{8}3,
7<4[8:1],7,1,1,8,8,{16}3,4,{8}3h[8:1],
,{24}5bxh,4xh,3xh,{8}2xh,{24}4bxh,5xh,6xh,{8}7xh,{24}1x,2x,3x,4x,5x,6x,7x,8x,1x,
{4}2x/6xh[8:1],{8}1-4[8:1],1,6-4[8:1],6,2>5[8:1],2,
7-4[8:1],7,1-5[8:1],1,{16}6x,7x,{8}8xh[8:1],{16}4x,3x,{8}2xh[8:1],
{24}8-4[8:1],7x,6x,5x,{12},{4}A8/B8/7x-5[8:1],E7/A7,{16}1bx,4x,1x,4x,
{8}1x,{24}5bx,6,7,{8}8h[8:1],{24}1bx,2,3,{8}4h[8:1],7,5,6,
{4}4xh[8:1],{8}5b,5,3,3,6,6,
2,2,7,7h[8:3],{24}1,2,3,4,{12},{24}E7,B6,B5,E5,{12},{8}1,
1,8,8,2,2,7,7,
3,3,6,6h[8:3],{24}4,3,2,1,{12},{24}E7,B7,B8,E1,{12},{8}3,
4,2,1,4,5,1,8,
5,6,8,7,5,6,3,7,
{1}2p6[2:1]/8q4[2:1],
{16}6,5,6,5,{8}6,4/7,4/7,5xh[8:1]/6xh[8:1],{4},6-8[8:1],
6/3-5[8:1],3/1-5[8:1],1/3-8[8:1],
3/7<4[8:1],1v4[8:1]/7v4[8:1],7/1,2xh[8:1]/6xh[8:1],
3-1[8:1],3/6-4[8:1],6/8-4[8:1],8/6-1[8:1],
6/2>5[8:1],2v5[8:1]/8v5[8:1],2/8,7xh[8:1]/3xh[8:1],
{8}1-5[8:1],1,7-4[8:1],7,2-5[8:1],2,8-4[8:1],8,
2-4-6-1[8:3],2,6<1b[8:1],6,{2}A6,
{8}8-4[8:1],8,2-5[8:1],2,7-4[8:1],7,1-5[8:1],1,
7-5-3-8[8:3],7,3>8b[8:1],3,{4}A3,{8}7x,6x,
{2}5xh[4:1],{8}4,4,{4}6h[16:3],
{16}3,5,{8}3,,4,{4}6,6,
3,{8}5,5,,3,{16}6,4,6,4,
{8},5h[8:3],{16},3,{4},{8}4,{24}6,7,8,1,{12},{8}3,
{24}1h,8h,7h,{4}6h,{8}5,{24}3,2,1,{8}8,6,
{24}8h,1h,2h,3h,{12},6h,,5h,,7h,,3h,,4h,
,2h,,7h,,5h,,6h,,{8}2x,5x,
{1}3xqq8[2:5]/4xpp7[2:5],
{4},,,,,,,,,,,{8}8,
8,
{4}1/7h[1:1],2,3,4,
{16}2h[1:1]/E7,B6,{8}B5,,6,{4},5,
{16}7/E3,B3,{8}B4,,8,{4},1,
{8}8h[4:1]/2h[4:1],{4},{8}1h[4:1]/7h[4:1],{4},4/5,
{16}3bx/6,2,1,8,7,6,5,4,3,2,1,8,7,6,5,4,
3/6bx,7,8,1,2,3,4,5,6,7,8,1,2,3,4,5,
6/2bx,3,4,5,6,7,8,1,2,3,4,5,6,7,8,1,
2/7bx,6,5,4,3,2,1,8,7,6,5,4,3,2,1,8,
{4}7xh[1:1],{2},{8}2,3,
{2}4,6h[8:3]/5h[8:3],
{8}4,7,4,7,4,7,4,7,
3,8,3,8,3,8,3,8,
2,1,2,1,2,1,2,1,
{16}3h[8:1],8h[8:1],{8},{16}4h[8:1],7h[8:1],{8},{16}5h[8:1],6h[8:1],{8},{4}3h[8:1],
{24}E7,B6,B5,E3,B3,B4,E8,E7,E6,E2,E3,E4,D8,D7,D6,D2,D3,D4,{4}B7/B2/B8/B1,
{24}E7,B6,B5,E3,B3,B4,E8,E7,E6,E2,E3,E4,D8,D7,D6,D2,D3,D4,{4}B6/B5/B4/B3,
{24}A8,D8,A7,A1,D2,A2,B8,B7,B6,B1,B2,B3,E8,E7,E6,E2,E3,E4,A6,D6,A5,A3,D4,A4,
A8,D8,A7,A1,D2,A2,B8,B7,B6,B1,B2,B3,E8,E7,E6,E2,E3,E4,A6,D6,A5,A3,D4,A4,
{1}Ch[2:3],
{4},,,{8}1,1,
{4}7<4[8:1],7/8-4[8:1],8/1-5[8:1],1/2>7b[2:1],
,7>4[2:1],4,6,
7,{8}8h[4:1],{24}2,3,4,{8},1h[4:1],{24}7,6,{6}5,
{4}8<5[8:1],8>3[8:1],8-4[8:1],8,
3,{8}6,6,{4}5p1[8:1]/4>1[8:1],4q8[8:1]/5<8[8:1],
4/5,{8}1,1h[8:1],8,8h[8:1],1,7,
{4}2,{8}4V68[4:1]/3-5-8[4:1],4/3,{2},{24}1,
2,3,4,5,6,{4}7-3[8:1],7/2-8[8:1],2/6-4[8:1],
6,{8}2,2,,4,4h[8:1],3,
,6,4,7,1,5,4,8,
{4}1,{8}7,7,,5,5h[8:1],6,
,3,5,2,8,4,5,1,
8,3,4bxh[16:1],2h[16:1],4h[16:1],2h[8:3],5,5,
,6,5bxh[16:1],7h[16:1],5h[16:1],7h[8:3],4,4,
{4},{8}6/5,5/6,,4h[4:1]/7h[4:1],{4},{16}2,
8,2,8,{8}1,1,7,7,1,6,
{1}1bxq6[4:3]*>6[4:3],
{4},7,6,5,
{8},{24}4bx,5x,6x,7x,8x,1x,2x,3x,4x,5x,6x,7x,8x,1x,2x,3x,4x,5x,6x,7x,8x,
1x,2x,3x,4x,5x,6x,7x,8x,1x,2x,3x,4x,{16}5x,6x,7x,8x,{8}1x-5[8:1],5x,
1bx,7,7,2,2,5,5,1,
{4}1>5[4:1],5-7-1[4:1],1-3-5[4:1],5-2[8:1],
1,{8}8,8h[8:3],{2},{16}4/7,
3/6,{8}2h[4:1]/5h[4:1],{4},{16}4/1,5/2,{8}6h[4:1]/3h[4:1],{4},{8}7,
4,7,5-1[8:1],7,5,{4}7,
{8}2,5,2,4-8[8:1],2,4,{4}2,
{2}3xh[8:3]/7xh[8:3],{16}8bx,7,6,5,4/8bx,1,2,3,
4/1bx,8,7,6,5/1bx,2,3,4,{4}5v2[8:1]/1v6[8:1],1x/5x,
,{8}7,7,4,4,5,5,
{16}6,3,6,3,{4}6h[8:1],{16}4,5,4,5,{4}4h[8:1],
{16}6,5,6,5,{8}6,{16}3,4,3,4,{8}3,6,6h[8:1],
{16}2,3,4,5,6,7,8,1,2,3,4,5,6,7,8,1,
{4}2xh[2:3],E5,E6,E7,
E8,8x,8x,{8}7,7,
{4}6xh[16:17],E5,E4,E3,
E2,1x,1x,{8}2,2,
{16}5bx,3,5,3,{8}5,{16}4bx,6,4,6,{8}4,{4}7xh[8:1],
{16}2bx,1,2,1,{8}2,{16}7bx,8,7,8,{8}7,{4}1xh[8:1],
{16}7x,6x,5x,E8,E7,E6,E1,C,E5,E2,E3,E4,2x,3x,{8}4bxw8b[8:5],
{1},{6}5/Cf,
5,3,3,7,7,
1>4[8:1],8,7,6<1[8:1],5,4,
3/C,3,5,5,1,1,
7<4[8:1],8,1,2<7[8:1],3,4,
{12}5/Cf,6,7,8,1,2,3,4,5,6,7,8,
1/Cf,2,3,4,5,6,7,8,1,2,3,4,
{4}5h[8:3]/Cf,{2},{8}6,6h[8:1],
{24}4bx,3x,2x,1x,8x,7x,6x,5x,4x,3x,2x,1x,8x,7x,6x,5x,4x,3x,2x,1x,8x,7x,6x,5x,
{8}4xh[2:3],{4},{8}E2,,E1,{16},E8,,E7,
,E6,,D5,D4,A3,D3,A2,{24}A2,D2,A1,D1,A8,D8,A7,D7,A6,D6,{12},{16}1,
2x,8,7x,3,4x,6,5x,1,2x,8,7x,3,4x,6,5x,
{8}1h[16:1],8h[16:1],3h[16:1],6h[16:1],2h[16:1],7h[16:1],4h[16:1],5h[16:1],
1,1,7,8,{4}1x-6p2-7-4[4:13]/7x-2q6-1-4[4:13],1b/7b,
E
