&title=神威 (PLATiNA :: LAB Remix)
&artist=Mayo :: Parang (w/z sasakure.‌UK) / TJ.hangneil
&first=0
&des=Antrum
&lv_5=14
&inote_5=(234)
{8},,,,1s5[8:1]/8v5[8:1],,,,
,,3h[8:1],,4,3h[8:1],,5,
3h[8:1],,6,3h[8:1],,7,4h[8:1],,
8,4h[8:1],,7,4h[8:1],,6,4h[8:1],
,5,4b,,,,4-8b[8:1]/5s1[8:1],,
,,2-4[8:1],,5,,2-5[8:1],,
6,,2-4[8:1],,7,,2-5[8:1],,
8,,7-5[8:1],,4,,7-4[8:1],,
3,,7-5[8:1],,2,,7-4[8:1],,
1,,3,,8-4[8:1]/3,,2,,2/8-5[8:1]
,,1,,1-5[8:1],,6,,
7/1-4[8:1],,8,8,8,8,{16}1,7,1,7,
2,6,3,5,4bx-8[8:1],,B1,,,,B2,,,,B3,,
,,,,{8}2h[8:2],,5<8[8:2],,3,3,
,,6h[8:2],,1>4[8:2],,5,5,
,,3h[8:2],,8<5[8:2],,2,2,
,,7h[8:2],,4>1[8:2],,6,6,
,,2h[8:2],,7-4[8:1],2,,1-3[8:1],
,8-5[8:1],,2-6[8:1],,7,8,8-4[8:1],
,,2,3,7h[8:2],4bh[8:2],,8h[8:2],
{16},,4,3,2,1h[8:2],,7,6,5,4h[8:2],,3,2,1,8h[8:2],
,6,5,4,{8}3b,,2,4,3h[8:2],,
7-4[8:1],,,,3,,2,,
1-5[8:1],,8-6[8:1],,2,2-4[8:1],,1,
1h[8:2],,,,2,,3/6,,
4/7h[8:2],,5-3[8:1],,7,7-1[8:1],,6,
6-2[8:1],,7,,6,,2/5,,
3/6,,{12}4,5,3,6,4,5,3,6,4,
5,3,6,4,5,3,5,4,6,4,5,3,
5,4,6,4b>7[8:4],,,,,,B1/B2/E2,,,
{8},,5<2[8:4],,,,B3/B4/E4,,
,,1>6[8:4],,,,B7/B8/E8,,
,,8<3[8:4],,,,B6/B5/E6,,
,,2h[8:2]/6,,5-1[8:1],5,,2q6[8:1],
,2/7,,8-4[8:1],,3,2,1h[8:1],
,,5/1,5/1,6/2,6/2,7/3,7/3,
8/4,8/4,{16}3,7,3,7,2,6,2,6,1,5,1,5,
8,4,8,4-8[8:1],,,,,,,,,
{24}2b,3x,4x,,,8b,
7x,6x,,,1b,2x,3x,,,7b,6x,5x,,,1b-3-5-7-1[8:6],2x-4-6-8-2[8:6],3x,,Ch[32:1],,,,,,
{8},,,,,,6,6,
5,6,6,4,6,6,3,6,
6,2,6,6,1,5,5,2,
5,5,3,5,5,4,5/3,5/3,
2/6,6/2-5[8:1],,6/2,,,3,3,
4,3,3,5,3,3,6,3,
3,7,3,3,8,4,4,7,
4,4,6,4,4,5,3<6[8:1],3,
7,7,8,8-4[8:1],2,2,1b,,
,,8-4[8:1],,,,2,,
3h[8:2],,5,4-8[8:1],,,6,,
7h[8:2],,1,8-4[8:1],,,3,,
2h[8:2],,8,1-5[8:1],,,7,7,
4,4-1[8:1],,6/4,,,7-3[8:1],,
2-5[8:1],,8,8,,6,4,4,
7,7,2,2,5,5,{16}1,4,1,4,
2,5,2,5,3,6,3,6,4,7,4,7,5-3-8[16:5],,,,
6,,6h[8:2],,,,,,5-7-3[16:5],,,,2,,,,2
,,,,1>4[8:2],,,,4qq5[16:5],,,,6,,,,
6,,7-5-1[16:5],,,,,,2-5b[8:1],,,,2,,,,6
,,,,7,,,,8-2-6[16:5],,,,3h[8:2],,,,
,,,,4-6-1[16:5],,,,6h[8:4],,,,,,,,2
,,,,8<5[8:2],,,,5pp4[16:5],,,,3h[8:2],,,,
,,,,2,,,,5,,,,1/4,,1/4,,
2/5,,2/5,,3/6,,3/6,,4/7,,4/7,,8b-2-5[16:5],,,,
3,,3h[8:1],,,,,,4-6-2[16:5]/6h[8:2],,,,,,,,7
,,,,7<4[16:4],,,,4q1[8:2],,,,3,,,,
2,,2-6b[16:2],,,,,,8h[8:4],,,,,,,,2
,,,,1-5[8:1],,,,1/7-4[8:1],,,,3/7,,,,
2,,2h[8:3],,,,,,8-4[8:1],,,,2-5[8:1],,,,
6-1[8:1],,,,3-7[8:1],,,,5-1[8:1],,,,2,,2,,
6,,6,,3,,3,,8,,8,,4,7,4,7,
3,6,3,6,2,5,2,5,1,4,1,4,1x,2,3,4,
5,6,7,8,1,2,3,4,5,6,7,8,1,2,,,
5/4b,,3,,6,,2,,7,,1,,8,,2,,
7,,4/5b,,2,,7,,3,,6,,1,,8,,
3,,6,,2,,4b/5,,1,,8,,3,,6,,
4,,5,,2,,7,,1,,4/5b,,6,,6,,
2,,2,,8,,8,,1/8,,1/8,,8/1,,8/1,,
8/1,,8/1,,8/1bs5[8:1],,,,
{4}
,,,,,,
,,,,,,,,
{16},,,,1b-5b[8:1],,,,,,,,8b,,,,7b,,{24}2,3,4,5,6,7,8,1-5[8:1],,{8},,7-4[8:1],7,
3-8[8:1],{16}3,,6v1[8:1],,6,,2-5[8:1],,2,,7v4[8:1],,7,,
3-8[8:1],,3,,5-1[8:1],,5,,2-6[8:1],,2,,7-4[8:1],,7,,
8-3[8:1],,8,,5-1[8:1],,5,,4-8[8:1],,4,,6,,6,,
2,3,4,5,8bh[8:4],,,,,7,6,5,4,3,2,1,
8bh[8:4]/7,,,,,,,,7,6,5,4,1bh[8:4]
,,,,
,,,,2,3,4,5,6,7,8,1,2,3,4,5,
1bh[8:4],,,,,,,,,,,,2,,,,
3-8[8:1]/7-4[8:1],,,,3/7,,,,1,,,,2v5[8:1]/6v1[8:1],,,,
2/6,,,,3-6[8:1],,,,7-4[8:1],,,,2-6[8:1],,,,
8h[8:4],,,,1,2,3,4,5h[8:2],,,,1,2,3,4,
5,6,7,8,1bh[8:4]/2,,,,8,7,6,5,4,3,2,1,
8,7,6,5,4b,,6,,7<4[8:1],,7,,1q5[8:1],,1,,
8,,8h[8:1],,,,3,,2>5[8:1],,2,,8p4[8:1],,8,,
1,,1,,{16}E2,B2,B3,E4,E8,B7,B6,E6,1,2,3,4,8,7,6,5,1b,,7,,7p3[8:1],,7,,3,,2,,1,,1h[8:2],,,,7,,7h[8:2],,,,5,,5h[8:2],,,,3q7[8:1]
,,,,1,,2,,3,,4,,4,,6,,6,,4,3,2,1,7,6,5,4,8,7,6,5,1,8,7,6,2b
,,1,,1,,2/8,,3,,3,,4/2,,5,,5b,,2-5[8:1],,5,,6,,7,,7h[8:1],,
3,,2h[8:1],,8,,8-4[8:1],,4,,3,,2,,2h[8:2],,
6,,7h[8:1],,1,,1-5[8:1],,8,,7,,6,,6h[8:1],,
2,,3h[8:1],,5,,5-1[8:1],,1,,2,,3,,3h[8:1],,
7,,6,,4b-8[8:1],,,,4/6,,7h[8:2],,,,1,2,
3,4,,,6,5,6,3,4,3,7,5,6,2,4,3,
8b,,,,7/5,,6,,6,,5/3,,4,,4,,3/1,,2,,2,,8,7,6,5,{24}2,3,4,5,6,7,8,1,2,
3,4,5,6,7pp8-5b[8:31],8,1b-3-5[8:30],,,,,,{4},,
,,,,
,,,,
,,,,
,,{8},
3h[8:4]/4h[8:3],,,
,,,,,{16},6h[8:4]/5h[8:3],,,,,
,,,,,,,,,,,,,Ch[8:33],
&inote_6=
