&title=ONLY MY NOTE
&artist=MOTION4YOU(THE IDOLM@STER)
&first=0.05
&des=江上雪风【LOVE】
&lv_5=13
&inote_5=(182){4}
,{8},,,,,,,,,,,8,
{4}8,
7x<5[8:1]/1x>3[8:1],7/1,{8}4x-8[8:5],,,3xh[2:1],
,,,,,1,{4}1,
8x-6[16:3],4,2x,{8}1/6-3[8:3],6x/1xh[2:1],
,,,,,3x,1x,8x,
{2}7x<5[8:1]/3x>1[8:1],{4}8x/4x,{8}6/2,2x/6xh[8:3],
,,{4}5h[4:1],6xh[4:1],5-1[8:1],
{2}5x,6xh[4:1]/2V47[2:1],
6xh[4:1],{24}7x,6x,5x,4x,3x,2x,{4}1x/7x,
{1}4bxpp4[4:5]*qq4[4:5],
{4},,,5x<7[8:1]/4xq8[8:1],
4/5,4x>2[8:1]/5xp1[8:1],5/4,8x/1x,
{8}7x,5x,4x-2[8:1],2x-6[16:3],,5xw1[8:1],,Cf,
,,,,{4}5>2[8:1],5/6,
7V58-4[2:1],2,{2}2h[4:1],
{4}1>5[4:1],5<1[4:1],{8}1,,,5h[8:3],
,,,,3b/6b,3b/6b,,,{4}4,
5/3-1[8:1],{8}3/5,,,1h[4:1],
,6,{4}6,4,5/7,
7<4[4:1],4,3,2,
2>5[4:1],{8}6,6,,7,{4}7p2[4:1],
2q7[4:1],{8}1,1,,,{4}2V47[4:1],
7V52[4:1],{8}8,8,,,{4}7,
5h[2:1]/2-6[16:3],,,5x/6x,
{8}3h[8:1],4,6h[8:1],5,2h[8:1],4,7h[8:1],5,
{4}7,2-5[8:1]/6-8[8:1],{8}6/2,,,7/3,
,7-4[8:1],3-1[8:1],7,{4}3,4<7[4:1],
2,3,4,{8}5/7,7/5,
,8,{4}8-6[8:1],4,4>1-7[2:1],
4,{8}6,6h[8:3],,,,,{4}8xpp3[2:1],
{8}5,5h[8:3],,,,,{2}2xh[4:1]/1xh[4:1],
7xh[4:1]/8xh[4:1],
{8}2,5,4,7,,3/6,{4}3b/6b,
{8}6pp1[2:1],,,4,{2}4h[4:1],
{8}3>6[2:1],,,5,{2}5h[4:1],
{8}5pp8[2:1],,,4,{2}4h[4:1],
{8}3>6[2:1],,,5,{2}5h[4:1],
{8}5-7[8:1],,,4,{2}4h[4:1],
{8}4>2[8:1],,,5,{4}5,5x-8[8:1]/1x-4[8:1],
{2}5x>7[1:1],Ch[4:3],
{4},,,7/2,
4<7[8:1],4/3,5>2[8:1],5/6,
4<7[8:1],4/2,5>2[8:1],5/7,
5x<8[8:1],5x,4x>1[8:1],4x,
E8/B8/B1/E2,E6/B5/B4/E4,{2}2h[4:1]/7h[4:1],
{4}7-5v3[2:1],{8}1,1h[8:3],,,,,{4}2V48V64[2:1],
{8}5,5h[8:3],,,,,{1}2x-6-4[4:3]/6x-2<8[4:3],
{4},,1-4[8:1],1/5,
{8}5x/6x,7x/4x,,,3x/4x,5x/2x,,,{4}8/1,
{8}5/4,6b/3b,,7/1,{4}1/7-5[8:1],
7/1-3[8:1],1/8-4[8:1],8,{8}3x>8[8:3]/5x<8[8:3],3x/5x,
,,,,,1/2,{4}1-5[8:1]/2-4[8:1],
1x/2x,3xh[4:1]/6x-8[8:1],6x,1<5[4:1],
5>1[4:1],1,5,2-4[8:1]/8-6[8:1],
2/8,8<6[8:1]/2>4[8:1],2/8,7-5[8:1]/1-3[8:1],
7/1,1>3[8:1]/7<5[8:1],7/1,7/1,
3h[4:1],4x-7[8:1]*-1[8:1],{8}4,,,8,
{4}8<4[4:1],4>8[4:1],8,4,
5h[4:1]/4>2[8:1],4,4h[4:1]/5p1[8:1],5,
5h[4:1]/4-2[8:1],4,4h[4:1]/5-1[8:1],5<1[4:1]*>1[4:1],
{2}5x,{8}2/8,2/8-4v6[8:5]*-4v2[8:5],,8,
,,,,,,{4}7/1,
5x/1x-6[8:1],7,4x/8x-3[8:1],2,
5x/1x-5[8:1],7,8x-4[8:1],8x<5[8:1]*>3[8:1],
{2}8x,3xh[4:1]/7V52[2:1],
3xh[4:1],{24}2x,3x,4x,5x,6x,7x,{4}8x/2x,
{1}5bxqq5[4:5]*pp5[4:5],
{4},,,4>1[8:1]/5<8[8:1],
4/5,{8}7/2,2/7V52[4:1],,2V47[4:1],,1h[4:1],
,,,8/1,,6-1[8:1]/3-8[8:1],,3b/6b/Cf,
,,,,{4}5>2[8:1],5/6,
4<7[8:1],4/3,5-1[4:1],1-7[4:1]*-3[4:1],
{8},,,,6h[8:1]/B3/B4,,,3h[8:1]/B6/B5,
,,{4}2/7,{8}5/4,6b/3b,,,{2}B7/B5/B2/B4/Ch[2:7],
5x-8[8:7],
,,{1}8x<5[1:1],
{2},,6h[4:1]/5h[4:1],
4h[4:1]/3h[4:1],
{4}5/7h[4:1],5,4/2h[4:1],4,
8/7,1/2,{8}5/4,3/6,,1xh[2:1],
{32},,,,,,,,,,,,8x,7x,6x,5x,4x,3x,2x,1x,{8}8x,,,{4}7-5[8:1]/1-5[8:1],
1-3[8:1]/7-3[8:1],7/1,{8}4x>1[4:1]*<7[4:1],4x,
,,,,{4}8x-4[8:1],4x>8[4:1]*<8[4:1],
{8},,,,7/1,7/1-5v3[8:5]*-5v7[8:5],,1,
,,,,,,{4}2/8,
4x/8x-3[8:1],2,5x/1x-6[8:1],7,
4x/8x-4[8:1],2,1x-5[8:1],1x>4[8:1]*<6[8:1],
{2}1x,3xh[4:1]/7V52[2:1],
3xh[4:1],{24}2x,3x,4x,5x,6x,7x,{4}8x/2x,
{1}6bxpp5[8:9]/4bxqq5[8:9],
{4},,,4x>2[8:1]/5xp1[8:1],
5/4,5x<7[8:1]/4xq8[8:1],4/5,1x/8x,
{8}2x,4x,5x-7[8:1],7x-3[16:3],,4xw8[8:1],,,,,,,{4}4<7[8:1],
4/3,
2V41-5[2:1],7,{2}7h[4:1],
{4}8<4[4:1],4>8[4:1],{8}8,,,4h[8:3],
,,,,6b/3b,6b/3b,,,{1}1bw5[4:3],
E
