&title=We don't need tears!
&artist=S.S.L. -舞ヶ原シンセ研究会-
&first=0
&des=Kondou
&lv_5=13
&inote_5=(138){1},
{8}
5h[16:3],,4h[8:1],,(140.01){8}5h[16:3],,4h[8:1],,
(140)5h[16:3],,4h[8:1],,5h[16:3],,4h[8:1],,
6h[16:3],,5h[8:1],,6h[16:3],,5h[8:1],,
6h[16:3],,5h[8:1],,6h[16:3],,5h[8:1],,
{16}7h[16:3]/8h[8:2],,,,,,7,,
8h[8:2]/6h[16:3],,,,,,6,,8h[8:2]/5h[16:3],,,,,,5,,8h[8:2]/4h[16:3],,
,,,,4,,4qq7[8:8]/8h[16:3],,,,,,1,,
1h[16:3],,,,,,2,,2h[16:3],,,,,,3,,3h[16:3]
,,,,,,4,,4h[8:2]/8h[16:3],,,,,,7,,3h[8:2]/7h[16:3],,,,,,6,,2h[8:2]/6h[16:3],,
,,,,5,,5h[16:3]/1h[8:2],,,,,,4,,4-7[8:4]/8h[16:3],,,,,,1,,
1h[16:3],,,,,,2,,8-5[8:4]/2h[16:3],,,,,,3,,
3h[16:3],,,,,,4,,8b/1b,,,13,,,13,,
28,,,68,,,68,,71,,,13,,,13,,
2^4[8:1]/8,,,,8,,,,54,,,75,,,75,,
68,,,24,,,24,,31,,,75,,,75,,
6-2[8:1]/8,,,,,,1,,1b/8b,,,26,,,35,,
45,,,73,,,82,,
81,,,26,,,35,,45,,,73,,,82,,
8/1^4[8:2],,,7,,,6,,5^8[8:2],,,3,,,2,,
1h[8:6],,,,,,,,,,,,5-1[8:1],,,,
7-5[8:1]/5x`Cf,,,,4-8[8:1],,,,4x/2-4[8:1]`Cf,,,,5-1[8:1],,,,
7^5[8:1]/5x`Cf,,,,4-8[8:1],,,,4x/2^4[8:1]`Cf,,,,5-1[8:1],,,,
7-5[8:1]/5x`Cf,,,,4-8[8:1],,,,4x/2-4[8:1]`Cf,,,,7,,6bz2[6:1],,
{8}
,3bs7[6:1],,8b-5[8:1],,,1v6[8:1],,
1x/3-1[8:1]`Cf,,8v3[8:1],,6-8[8:1]/8x`Cf,,1v6[8:1],,
1x/4-1[8:1]`Cf,,8v3[8:1],,5-8[8:1]/8x`Cf,,1v6[8:1],,
1x/3-1[8:1]`Cf,,8v3[8:1],,6-8[8:1]/8x`Cf,,46,Cfh[8:9],
,,,,,,,,
1bw5[8:12],,,,,,,,
,,,,,,,,
7-3[8:6],,,,,,,,
1V75[8:5]*V35[8:5],,,,,,,,
4h[8:1]/6h[8:1],,4h[8:1]/6h[8:1],,4h[8:1]/6h[8:1],,4h[8:1]/6h[8:1],,
5h[8:1]/3h[8:1],,5h[8:1]/3h[8:1],,5h[8:1]/3h[8:1],,5h[8:1]/3h[8:1],,
4h[8:1]/2h[8:1],,3h[8:1]/5h[8:1],,4h[8:1]/6h[8:1],,7h[8:6]/5h[8:1],,
1pp1[8:4],,,,,,6-2[8:1]b,,
{16}6b/2b,,,3,4,,4,,1x/5x,,,3,4,,4,,
1x/5x,,,3,4,,4,,1x/5x,,34,,2/6-2[8:1]b,,54,,
6b/2b,,,4,5,,54,,7x/1x,,,4,5,,54,,7x/1x
,,,4,5,,54,,7x/1x,,34,,2/6-2[8:1]b,,5/4,,
6b/2b,s,3,3,4,,24,,8x/7x,,3,3,4,,24,,
8x/7x,,3,3,4,,24,,8x/7x,,34,,6-2[8:1]b/5,,81,,
6b-4[8:1]/2b,,3,,6x/4x,,3,,2x,2x,1,1,8x,8x,7,7h[16:9],
,,,,,,,,,,84,,6-2[8:1]b/2-5[8:1],,84,,
6b/2b,,,,4-1[8:1]/8-4b[8:1],,,,8b/4bV61[6:1],,,,2,,3,,
4-8[8:1],,,7,7,,5bh[8:2],,,,{24}8x,1x,2x,{16}3x,,6,,
7-5[8:1]/5-1[8:1],,,,7-3[8:1]/5,,,,2,,2,,8qq5[8:3]/1pp4[8:3],,
,,
8b/1b,,,,,,,,,,73,,6-2[8:1]b/2-5[8:1],,73,,
6b/2bV86[6:1],,,,5x<3[8:2],,4,,3,,,,4-1[8:1],,4,,
4b/5b<3b[8:2],,,2bx,,,4bh[8:2],,,,{24}1x,8x,7x,{16}6x,,3,,
2-4[8:1]/4-8[8:1],,,,2-6[8:1]/4,,,,7,,7,,1>8[8:3]/8<1[8:3],,
,,
1b/8b,,,,,,,,,,73,,2,1,2,1,
3b-1[8:1]*-1[8:1],,7-5[8:1],,3x-7b[8:1],,,,3-1[8:1]*-1[8:1],,4-6[8:1],,3xv8b[8:1],,,,3-1[8:1]*-1[8:1],,7-5[8:1],,3x-7b[8:1],,,,3-1[8:1]*-1[8:1],,4-6[8:1],,3xv8b[8:1],,,,3-1[8:1]*-1[8:1],,7-5[8:1],,3x-7b[8:1],,,,3-1[8:1]*-1[8:1],,4-8[8:1],,
3x,,4v7[8:1]*v1[8:1],,,,4-6b[8:1]*-2b[8:1],,,,4,,,,1/7,,65,,82,,
6b^8[8:1]*^8[8:1]/4b,,2^4[8:1],,6x-2b[8:1],,,,6^8[8:1]*^8[8:1],,5^3[8:1],,6xv1b[8:1],,,,6^8[8:1]*^8[8:1],,2^4[8:1],,6x-2b[8:1],,,,6^8[8:1]*^8[8:1],,5^3[8:1],,6xv1b[8:1],,,,6^8[8:1]*^8[8:1],,2^4[8:1],,6x-2b[8:1],,,,6^8[8:1]*^8[8:1],,5-1[8:1],,6x,,,,
4bh[140.2#8:104],,,,,,,,,,,,6-2b[8:1],,,,
{4}Cf,,,,,,,6-2[8:1],,,,,,,,6-2[8:1],
Cf,,,,,,,6-2[8:1],,,,,,,,6-2b[8:1],
Cf,,,,,,,,,,,,,,,,{1},
