&title=アマデウス
&artist=『Steins;Gate 0』オープニング
&first=0
&des=Tane
&lv_5=13
&inote_5=(177){1},,
{8}A1/5p8[4:14],,,,
,,,,
A2,,,,
,,,,
A3,,,,
,,,,
A4,,,,
,,,,
{8}A5/1p4[4:14],,,,
,,,,
A6,,,,
,,,,
A7,,,,
,,,,
{16},,A8,E8,
,,,,
{8},,,,
{8},,,,
,,,,
34,34,25,25,
{16}34,,E6,E3,
E7,E4,E8,,
{8}1-5[8:1],,8,8^5[8:1],
,8^3[8:1],,8-4[8:1],
,8<2[8:3],,,
,,,,
8-4[8:1],,1,1^4[8:1],
,1,6,5^8[8:1],
,5^2[8:1],,{24}5^8[8:1],,,
,,,,,,
,,,
,,,
{24}A1,A2,A3,
A4,A5,A6,
A7,A8,A1,{8}5xq4[4:2],
,,,,
,,,C/B2/B3/E3/B7/B6/E7,
,E2,B7,B3,
E6,B3,B7,E2,
E4,E6,B2,E8,
,,,,
,,,,
{8}1,,,28,
,,37,,
{16}1,,E2,B2,
B3,,8,,
E8,B7,B6,,
1,,,,
{8}7,,,68,
,,15,,
{16}2,,E2,B1,
B8,,6,,
E6,B5,B4,,
2,,,,
{8}1h[8:3],,,3h[8:3],
,,1q5[8:1],,
{16}8,,,,
1,,28,,
,,8,,
17,,,,
{8}8h[8:3],,,6h[8:3],
,,8p4[8:1],,
{16}1,,,,
C,,B8/B4/B6/B2,,
,,,,
,,,,
{8}1^4[8:1],,6,7^4[8:1],
,2,1-5[8:1],,
8,,7,6,
5^2[8:1],6,5,,
{8}8^5[8:1],,3,2^5[8:1],
,7,8-4[8:1],,
1,,2,3,
4^7[8:1],3,4,,
{8}1-5[8:1],,6^1[8:1],6,
,3^6[8:1],3,,
8-4[8:1],,3^8[8:1],3,
,6^3[8:1],6,,
1-5[8:1],,4-8[8:1],4,
,2^5[8:1],2,,
1,8,2,7,
1V35V71[4:16],,,,
{8}B2,B3,,,
8x,,,8x,
,B7,B6,,
1x,,1x,,
B2,B3,,,
8x,,,8x,
,B7,B6,,
5-7-1v2-4[4:16],,,,
{8}2x,2x,,,
C,,,E5,
,3x,3x,,
E5,,C,,
5x,5x,,,
E5,,,E1,
,1x,1x,,
C,,,,
{8}5,5,34,34,
{16}2,,2,1,
2,,8,,
{8}18,7,56,4,
23,1,78,6,
{8}45,3,12,8,
67,5,34,2,
18,1-4b[8:1]/8-5b[8:1],,,
,,,,
{8}38,2,1,16,
7-3[8:1],7h[4:1],,,
25,3,4,47,
6-2[8:1],6h[4:1],,,
15,15,26,26,
38,56,34,16,
18,27,E3/E7,E4h[8:7]/E6h[8:7],
,,,,
{8},,,,
E3/E7,E8/E2,,1-5[8:1],
,1,8-6[8:1],8,
5,5-1[8:1],,5/6^3[8:1],
,6/1^6[8:1],,1^4[8:1]/4-8[8:1],
,,,5-2[8:1]/7,
,5,7-5[8:1],7,
1,1>6[4:1],,18,
{8},7q1[8:5],7,C,
,,,,
,,2,3,
4,4^7[8:1],,2,
8,7,6,6q4[4:1],
,,,,
{16}1,,3,4,2
,,6,5,
7,,3,4,
1,,{32}1b,E2/E1,B2/B8,B3/B7,
{8}E4/E7,,5,5,
4,4,,8-4[8:1],
,8,1-3[8:1],1,
4,4-8[8:1],,4/3^4-6[8:1],
,3/8^1-3[8:1],,8^7-5[8:1]/5-1[8:1],
,,,4-7[8:1]/2,
,4,2-4[8:1],2,
8,8^7-5^4-2[4:1],,81,
{8},1pp8[8:3],1,C,
,,,,
78,1,24,3^6[8:1],
,7,,8,
12,8,57,6v1[8:1],
,,,,
{16}1,,3,5,1b
,,7,5,
1b,,3,5,
1b,,8b,,
{8},1-4[8:1]/8-5[8:1],18,18,
,,,1^4[8:1],
,1,6^1[8:1],5,
4,3^8[8:1],,3,
,6^3[8:1],7,8,
1^6[8:1],2,3,4^1[8:1],
,4,7^4[8:1],8,
1,2^5[8:1],,2,
{8},7^2[8:1],6,5,
4^7[8:1],3,2,1^6[8:1],
,1,4^1[8:1],5,
6,7^4[8:1],,7,
,2^7[8:1],3,4,
5^2[8:1],6,7,8^5[8:1],
,8,3^8[8:1],4,
5,6,,7,
{16}3,4,3,4,
2,5,2,5,
{24}8,7,8,7,8,7,
8,,,{48}A6,B6,Cf,B2,A2,
,,,,
,,,,
