&title=青色絵具
&artist=日野森志歩&日野森雫×初音ミク
&first=0
&des=WuWai
&lv_5=12+
&inote_5=(126.02){1},,
{16}6,,,,,,,,,,5,,,,5<8[16:8],,
{16},,,,,,,,,,,,,,,,
{16}2,,,,,,1,,,,8h[8:1],,1q2>4[8:6],,,,
{16},,,,,,,,,,,,,,,,
{16}5,,,,5>2[4:1],,,,6,,,,7,,,,
{16}4,,,,4<7[4:1],,,,3,,,,2,,,,
{16}1,,1,,8,,8,,3,,3,,6,,6,,
{16}4,5,3,6,2,7,1,8,2,,6,,1-5[8:1],,27,,
{16}1b/8b>3[8:1],,,,4-1[8:1],,,,6,,,7,,,8,,
{16}8p4[8:2],,,,3,,3,,2,,2,,41,,,,
{16}8b/1b<6[8:1],,,,5-8[8:1],,,,3,,,2,,,1,,
{16}1q5[8:2],,,,7,,7,,6,,6,,85,,1,,
{16}2b/7b<4[8:1],,,,3-8[8:1],,,,5,,,6,,,7,,
{16}7p3[8:2],,,,2,,2,,1,,1,,24,,,,
{16}7b/2b>5[8:1],,,,6-1[8:1],,,,4,,,3,,,2,,
{16}2q6[8:2],,,,7,,7,,8,,8,,75,,6h[8:1],,
{16}5,,,,3h[8:1],,4h[4:1],,,,3,,4>1[4:1],,5,,
{16},,,,,,8,,8,,1,,1-5[8:1],,2,,
{16}2,,,,,,6,,,,4q5[8:5],,3,,,,
{16},,,,,,,,,,3,,2,,1h[4:1],,
{16}8>4[4:1],,7,,,,,,,,5,,6,,7h[4:1],,
{16},,5,,4,,3h[4:1],,,,8,,,,4,,
{16},,6,,5,,4>2>4[4:1]/7,,,,,,,,,,
{12}7,6,5,2,3,{24}4,5,4,,{12}6,7,8,1,2,
{16}3h[16:3],,,4,3,,5,,2-6[8:1],,6,,{24}2,,,,,,
{24}5,,5,4,,4,6,,6,3,,3,5,,5,4,,4,6,,6,2,,2,
{16}8bqq5[8:3],,,,2,,1,,2,,3,,4>1[8:1],,5,,
{16}6,,7-4[8:1],,,,1,,2,,3h[4:1],,,,4,,
{16}5,,4,,,,6,5,6,,5,,4-7[8:1],,3,,
{16}2>5[8:1],,,,,,8,,7,,5,,4,,6/3h[4:1],,
{16},,4,,5,,6,3,5,,2,,1<6[8:1],,7,,
{16}8b>3[8:1],,,,1b-5[8:1],,,,1b/Cf,,,,7-3[8:1],,6,,
{16}7b/2b-6[8:1],,,,4h[4:1]/2,,,,5<8[8:1],,4,,3,,2,,
{16}1-3<5[8:1],,5-7>1[8:1],,,,,,,,,,47,,38,,
{16}2h[4:1]/1,,,,1<6[8:1],,,2,1,,3>1[8:1],,5,,4bp8[8:1],,
{16},,5b>1[8:1],,,,6hb[4:1],,,,8,,7-3[8:1],,6,,
{16}7b,,,,4/3h[8:3],,,,2,,4h[4:1],,1,,5h[4:1],,
{16}8-4-2[4:1],,6h[8:1],,8,,7-5[8:1],,,,,,3,,3,,
{16}4>1[8:1],,,5,4<7[8:1],,,,2,,,,1h[4:1],,7,,
{16}6,,5,,2,4,3,5,4>1[8:1],,1,,8,,7,,
{16}6b<8[8:1]/Cf,,,,5q1[16:3],,,,2,,,3,,,4,,
{16}4h[8:3],,,,3,,5h[4:1],,1<6[8:1],,3h[8:1],,1,,,,
{16}3>1[8:1],,,,4p8[16:3],,,,7,,,6,,,5,,
{16}5h[8:3],,,,1,,2,,5,3,6,4,7,5,8h[8:1],,
{16}6<8[8:1],,,,5q1[16:3],,,,54,,,3,,,2,,
{16}2h[8:3],,,,1,,4h[4:1],,3<6[8:1],,2h[8:1],,3,,,,
{16}3>1[8:1],,,,4p8[16:3],,,,45,,,6,,,7,,
{16}7h[8:3],,,,8,,5h[4:1],,6>3[8:1],,7h[4:1],,6,,,,
{16}Cf,,,,,,,,,,4,,,,4q5[8:6],,
{16},,,,,,,,,,,,,,,,
{16}8,,,,,,3,,,,5p2[8:7],,5pp1[8:6],,,,
{16},,,,,,,,,,,,,,,,
{16}C,,,,2-5[8:1],,,,1,,,,7<4[8:1],,,,
{16}8,,,,3-8[8:1],,,,4,,,,6<1[8:1],,,,
{16}5,,,,28,,,4,5,,3,,2,,1h[8:3],,
{16},,C,,E1f,,,,2h[114:1]/7h[114:1],,,,36,,27,,
{16}1b/8-4[8:1],,6,,5>2[8:1]/8,,7,,85,,7,,6,,5h[8:1],,
{16}2,6,3,7,4-1[8:1],,8>3[8:1],,,,,,6,,5,,
{16}2/7h[4:1],,,,4-7[8:1],,5,3,4,,1,,2,,3b>1[8:1],,
{16}4,,4bp8[8:1],,5,,5b>1[8:1],,6,,6,,7,,7,,
{16}8b/1-5[8:1],,3,,4<7[8:1]/1,,2,,14,,2,,3,,4h[8:1],,
{16}7,3,6,2,5-8[8:1],,1<6[8:1],,,,,,3,,4,,
{16}7/2,,5,4,6h[8:1],,4,5,3h[8:1],,5,4,6h[8:1],,5-8[8:1],,
{16}4-1[8:1],,5,,4,,,,,,18,,27,,36,,
{16}4b>1[8:1]/5b,,6,,7p4[8:4],,,,7/8,,,1x,,,2x,,
{16}3xh[4:1],,,,4,,2/5>2[8:1],,1/8<5[8:1],,5,,8,,,,
{16}36,,4,5,3h[8:1],,5,4,7h[8:1],,4,5,1h[8:1],,7,,
{16}3-5[8:1]/5,,,,6-3[8:1],,6,,2-6[8:1],,2,,5,,5,,
{16}5b<8[8:1]/4b,,3,,2q5[8:4],,,,2/1,,,8x,,,7x,,
{16}6xh[4:1],,,,5,,7/4<7[8:1],,8/1>4[8:1],,4,,1,,,,
{16}63,,5,4,6h[8:1],,4,5,2h[8:1],,5,4,8h[8:1],,2,,
{16}6-4[8:1]/4,,,,3-6[8:1],,3,,7-3[8:1],,7,,4,,4,,
{16}45,,,,2,,2,,5h[16:1],,,,4h[16:1],,,,
{16}7,,,,2,,2,,5h[16:1],,,,4,,,,
{16}7,,,,2,,7,,4h[16:1],,,,5h[16:1],,,,
{16}2,,,,7,,2,,5h[16:1],,,,3,,6,,
{16}1,,,,8,,1,,5h[16:1],,,,4h[16:1],,,,
{16}8,,,,1,,1,,5h[16:1],,,,4,,,,
{16}8,,,,1,,8,,4h[16:1],,,,5h[16:1],,,,
{16}1,,,,8,,1,,D5,,C,,D1,,,,,,,,E
