&title=Galactic mermaid
&artist=Mermaid Sisters
&first=0.488
&des=鱼人兄弟
&lv_5=13+
&inote_5=(108.5)
{16}6,5,{24},,7h[8:1]/4h[8:1],
,,,,,,
{16}3,4,{24},,2h[8:1]/5h[8:1],
,,,,,,
{8}4v5-7b[4:1]/5v4-2b[4:1],,,,
,8h[4:1]/1h[4:1],,,
{24}3h[24:9],,,,,4h[6:1],
,,,,,,
6h[24:9],,,,,5h[6:1],
,,,,,,
{24}2h[24:9],,,,,4h[6:1],
,,,,,,
7h[24:9],,,,,5h[6:1],
,,,,,,
{24}1h[24:9],,,,,3h[6:1],
,,,,,,
8h[24:9],,,,,6h[6:1],
,,,,,,
{8}7/2,,,,
{12}4pp6[8:1]/5qq3[8:1],,4/5,,,,
{24}2-4[12:1],,,2,,6h[6:1],
,,,,,,
7-5[12:1],,,7,,3h[6:1],
,,,,,,
{24}1-3[12:1],,,1,,4h[6:1],
,,,,,,
8-6[12:1],,,8,,5h[6:1],
,,,,,,
{24}4-6[12:1],,,3,,2h[6:1],
,,,,,,5-3[12:1],,,6,,7h[6:1],
,,,,,,
{8}1^4[12:1],8^5[12:1],1,8,
3q5[4:1],7h[4:1]/1,,,
{8}6h[8:7],E8,,E5,
,E8,,E5,
{24}5/3,,,3h[4:1],,1^6[8:1],
,,,,,,
2,,2h[24:7],,,3-7[8:1],
,,,,,,
{24}1,,,1h[4:1],,8^3[8:1],
,,,,,,
7,,,7h[4:1],,,
E5,,E4,,,E3,
{24}6,,,6h[4:1],,5^2[8:1],
,,,,,,
7,,7h[24:7],,,8^5[8:1],
,,,,,,
{24}1,,,1h[4:1],,4-8[8:1],
,,,,,,
2,,,2h[4:1],,,
E8,,E7,,,E6,
{24}4,,,3/5,,,
6>2[8:1]/2>6[8:1],,,,,6/2,
,,,,,,
8,,1/7,,,6,
{24}5^8[12:1]*^2[12:1],,3b/7b,,,,
5bx,,,,{48}1bxs5b[24:5]/Cf,,,,
{24},,,,,,
6,,,7,,,
{8}8h[4:3]/5<4[16:5],,,,
,,5,4,
{8}3q5[6:1]/7,,8w4[12:1],,
,,,,
{16}6,5-8[12:1],{24},,7/4,
,,,,,,
{16}2,1-4[12:1],{24},,3/8,
,,,7,,,
{8}6/5v4-2b[4:1]*-7b[8:1],,,,
,8,1/7,2/6,
{8}3h[48:1]/5h[48:1],3h[48:1]/5h[48:1],3h[48:1]/5h[48:1],3h[48:1]/5h[48:1],
{8}6h[48:1]/4h[48:1],6h[48:1]/4h[48:1],6h[48:1]/4h[48:1],6h[48:1]/4h[48:1],
{8}3h[48:1]/7h[48:1],3h[48:1]/7h[48:1],3h[48:1]/7h[48:1],3h[48:1]/7h[48:1],
{8}6h[48:1]/2h[48:1],6h[48:1]/2h[48:1],6h[48:1]/2h[48:1],6h[48:1]/2h[48:1],
{8}5h[48:1]/3h[48:1],2h[48:1]/4h[48:1],5h[48:1]/3h[48:1],2h[48:1]/4h[48:1],
{8}7h[48:1]/5h[48:1],4h[48:1]/6h[48:1],7h[48:1]/5h[48:1],4h[48:1]/6h[48:1],
{8}3h[48:1]/5h[48:1],2h[48:1]/4h[48:1],3h[48:1]/5h[48:1],6h[48:1]/4h[48:1],
{8}6h[48:1]/5h[48:1],4h[48:1]/5h[48:1],3h[48:1]/4h[48:1],3h[48:1]/4h[48:1],
{24}2q6[12:1],,,7/3,,8h[8:1],
,,,8,,,
7^4[12:1],,,2/6,,1h[8:1],
,,,1,,,
{24}3q7[12:1],,,5/2,,1h[8:1],
,,,2,,,
6p2[12:1],,,7/4,,8h[8:1],
,,,7,,,
{24}7p3[12:1],,,1/6,,8h[8:1],
,,,1,,,
2^5[12:1],,,8/3,,1h[8:1],
,,,8,,,
{8}1^4[12:1]/6,3/8^5[12:1],1/6,8,
3qq6[4:1],7h[4:1]/1,,,
{8}5xh[8:7],E7,,E4,
,E7,{24},,1x,1x,,,
{8}3x/8,1/6x,
{24}4x/3>5b[24:8],,2x/6qq5b[24:6],,,B1/B8/E1f,
,,,,,,
,,,,,,
{8}3>4[4:1],3h[4:1],,,
2qq6[4:1],2h[4:1],,,
{8}4>5[4:1],4h[4:1],,,
3qq6[4:1],3h[4:1],,,
{8}4<3[4:1],7h[4:1]/2,,,
8qq5[4:1],2h[4:1]/6,,,
{8}1qq4[4:1],3h[4:1]/6,,,
2qq3[4:1],3/5h[4:1],,,
{24}6,,,1/8,,,
2/7,,4-1[12:1],5-8[12:1],,3,
6,,4,5,,,{8}2,5/4^1b[12:1],
{8}2/8b^5b[12:1],4b/6,8b,{24}1bs5b[4:1],,2b/4bh[6:1],
{8},,E6,E7,
{8}E8,3/8,{24}5/6pp5[4:1],,3,4,,1b,
{8},2,3,4,
{8}4q5[4:1]/5,,{24}5,,,,,8xh[24:10],
{8},E7,,E3,
{24}8-3[12:1],,,1/6,,7,
8,,6,,,7,
5-2[12:1],,8,4,,7,
5,,6,,,6,
{24}1-6[12:1],,,8/3,,2,
1,,3,,,3,
4-7[12:1],,1,5,,2,
4,,3h,,,3h,
{24}7-4[12:1],,,1/6,,8,
7,,1,,,2,
4-1[12:1],,3,5,,6,
4,,7,,,7,
{24}2-5[12:1],,,8/3,,1,
2,,7,,,7,
5-8[12:1],,6,4,,3,
5,,2h,,,2h,
{24}8,,,1/7,,,
6xV47b[6:1]/2xV41b[6:1],,3/5,,,6x/2x,
,,,,,,
8x,,1x/7x,,,6,
{24}5-8[12:1]*-2[12:1],,3b/7b,,,,
5bx,,,,{48}1bx,2x^7-3^6b[24:9]/8x,3x/7x,4x/6x,
{24}5x,,,,,,
E5,,,E6,,,
{8}E7,8,{24}5/7qq8[4:1],,3,4,,2,
{24}7,,1,1,,,{8}2,3/8,
{36}4x/7x,6,5,4,3,2,1,8,7,
6x/2x,3,4,5,6,7pp3[4:1],8,1,2,
{24}7h[8:11]/3bx,,,,,,
,,,,,,
{8}3bxh[8:7],,,,
,,,,
{8}3q5[6:1]/7,,8w4[12:1],,
,,,,
{16}3,4-1b[12:1],{24},,2/6h[6:1],
,,,,,,
{16}7,8-5b[12:1],{24},,6/2h[6:1],
,,,,,2-5[12:1],
{24}4,,,5,,2/6,
,,7,7,,2-6[12:1],
5,,3,,,7/2>8[4:1],
,,8,8,,,
{24}1b,,,,,,
,,,2xqq4[24:7]/7xp5[24:7],,1x/8x,
{8},,,,
{48},,,,E5,,
,,,,,,
,B3,,,,,
,,,,,,
{48}C,,,,,,
,,,,B8,,
,,,,,,
,{64}A1f,B1f/E1f/E2f/B8f/B2f/E8f/E3f,Cf/A3f/B3f/A7f/B7f,D7f/E7f/B6f/B4f/E4f/D4f/B5f,E6f/E5f/A4f/A6f/A5f/D6f/D5f,
