&title=CODE:RED
&artist=Powerless
&first=0
&des=Dororo
&lv_5=14+
&inote_5=(220)
{1},
{48}1b/8b,2x/7x,3xV17s3[4:13]/6xV82z6[4:13],{16}4x/5x,,,,,,,,,,,,,,,
{16},,,,,,,,,,,,,,,,
{16},,,,,,,,,,,,,,,,
{16},,,,,,,,,,,,,,,,
{48}1b/8b,2xb/7xb,3xbs7b[4:5]/6xbz2b[4:5],{16}4xb/5xb,,,,,,,,,,,,,,,
{16},,,,,,,,,,,,,,,,
{16}3,,3,,24,,,,6,,6,,57,,,,
{16}1,,1,,8,,8,,2-5[8:1]/7-4[8:1],,27,,,,,,
{16}3xbh[8:3]/6x,,,,,,5h[8:3],,,,,,4h[8:3],,,,
{16},,2h[8:3],,,,,,1,,,,,,,,
{16}3bh[8:3]/8,,,,,,5h[8:3],,,,,,7h[8:3],,,,
{16},,8h[8:3],,,,,,4,,,,,,,,
{16}6bh[8:3]/3,,,,,,4h[8:3],,,,,,5h[8:3],,,,
{16},,7h[8:3],,,,,,8,,,,,,,,
{16}6bh[8:3]/2,,,,,,5h[8:3],,,,,,4,,,,
{16}3b/4,,,,78,,,,2/6b,,,,,,,,
{16}3b>7>3[4:5],,,,,,A4/B4,,,,,,A5/B5,,,,
{16},,A6/B6,,,,,,Ch[2:1],,,,,,,,
{16}1bpp5[4:5],,,,,,D6/E6,,,,,,D7/E7,,,,
{16},,D8/E8,,,,,,D1/E1,,,,,,,,
{16}6b<2<6[4:5],,,,,,A5/B5,,,,,,A4/B4,,,,
{16},,A3/B3,,,,,,Chf[2:1],,,,,,,,
{16}8b,,,,,,,,A1/A7/D7/D2f/A6/A2/E7/E2,,,,,,,,
{16}A5/A3/B3/B4/B5/E5/E4/A4f/D5/D4,,,,,,,,2x/6x,,,,,,,,
{16}3x/4h[8:3],,,,2h[2:1],,,,5h[4:1],,,,,,,,
{16}3,,3/4h[8:3],,,,,,2,,4,,15,,,,
{16}6x/5h[8:3],,,,7h[2:1],,,,4h[4:1],,,,,,,,
{16}6,,6/5h[8:3],,,,,,7,,5,,84,,,,
{16}2x,,2,,4,,3,,5,,5,,26,,,,
{16}7x,,7,,5,,6,,4,,4,,37,,,,
{16}1x/2x,,12,,3x/8x,,38,,4x/7x,,47,,5x<4b[4:3]/6x,,56,,
{16},,,,,,,,,,,,,,,,
{16}3h[8:1]/5h[8:1],,,,4h[8:1]/7h[8:1],,,,3h[8:1]/5h[8:1],,,,4h[8:1]/7h[8:1],,,,
{16}2-4[8:1]/6h[8:1],,,,8h[8:1],,,,8-4[8:1]/5h[8:1],,,,3h[8:1],,,,
{16}1h[8:1]/6h[8:1],,,,3h[8:1]/7h[8:1],,,,1h[8:1]/6h[8:1],,,,3h[8:1]/7h[8:1],,,,
{16}6xh[8:1]/E5,,,,2xh[8:1]/E6,,,,8xh[8:1]/E4,,,,1xb/7xb,,17,,
{16}6h[8:1]/4h[8:1],,,,5h[8:1]/2h[8:1],,,,6h[8:1]/4h[8:1],,,,5h[8:1]/2h[8:1],,,,
{16}7-5[8:1]/3h[8:1],,,,1h[8:1],,,,1-5[8:1]/4h[8:1],,,,6h[8:1],,,,
{16}47,,6,,1b,,,,25,,3,,8b,,,,
{16}46,,46,,3b-1[8:1]/7b-1[8:1],,,,3b-5[8:1]/7b-5[8:1],,,,3b/7b,,,,
{16}6xh[8:1]/4xh[8:1],,,,2,,5,,6h[8:1]/4h[8:1],,,,2,,5,,
{16}1^4[8:1],,1,,6,,7,,8^5[8:1],,8,,3,,2,,
{16}6xh[8:1]/1xh[8:1],,,,3,,7,,6h[8:1]/1h[8:1],,,,3,,7,,
{16}2xh[8:1]/E5,,,,6xh[8:1]/E4,,,,8xh[8:1]/E6,,,,7xb/1xb,,71,,
{16}3xh[8:1]/5xh[8:1],,,,7,,4,,3h[8:1]/5h[8:1],,,,7,,4,,
{16}8-5[8:1],,8,,3,,3,,1-4[8:1],,1,,6,,6xh[8:3],,
{16},,,,{64}A7f,D8/E8,A8/B8,D1/E1,A1/B1,D2/E2,A2/B2,,{16},,,,,,{64}A3f,D4/E4,A4/B4,D5/E5,A5/B5,D6/E6,A6/B6,,{16},,
{16}8x-4[8:1],,,,8xw4[8:1],,,,8x,,,,7b/1b,,,,
{12}2,4,3,6,5,6,3,4,3,7,5,6,
{16}A1,E1,E8,A7,A2,B2,C,B6,A3,E4,E5,A5,8x,,,,
{12}7,5,6,3,4,3,6,5,6,2,4,3,
{16}A8,E1,E2,A2,A7,B7,C,B3,A6,E6,E5,A4,1x,,,,
{16}2b-8[8:1]/5b,,2/5,,,,,,3b/6b-2[8:1],,36,,,,,,
{16}4b-6[8:1]/7b,,47,,,,,,5b-3[8:1]/8b,,58,,,,,,
{16}6b/1b-5[8:1],,61,,,,,,7b-1[8:1]/2b,,72,,,,,,
{16}3,5,3,5,2,6,2,6,1-5[8:1],7,1,7,1b,,,,
{16}2-5[8:1],,,,6-2[8:1]/2,,,,6/1-6[8:1],,,,8,,8h[4:1],,
{16},,5,,37,,,,1x/8x,2,3,4,6,7,8,1,
{16}4^1b[8:1],,,,7^4b[8:1]/4,,,,2q6b[8:1]/7,,,,8,,8h[4:1],,
{16},,1,,27,,,,3x,4,5,6,7,8,1,2,
{16}7-4[8:1],,,,3-7[8:1]/7,,,,3/8-3[8:1],,,,1,,1h[4:1],,
{16},,4,,62,,,,8x/1x,7,6,5,3,2,1,8,
{16}5-1[8:1],,,,3-6[8:1]/5,,,,7-2[8:1]/3,,,,4>5b[4:3]/7,,,,
{16}5b,,,,,,,,,,,,,,,,
{16}Ch[1:6]/6xh[4:3],,,,,,,,,,,,,,,,
{16}7h[4:3],,,,,,,,,,,,,,,,
{16}8h[4:3],,,,,,,,,,,,,,,,
{16}1h[4:3],,,,,,,,,,,,,,,,
{16}2h[4:3],,,,,,,,,,,,,,,,
{16}3h[4:3],,,,,,,,,,,,,,,,
{16}4bz8-2[4:5],,,,,,,,,,,,8,,,,
{16}8-6b[4:1],,,,,,,,,,,,,,,,
{16}1bqq5qq1[1:2],,,,,,,,,,,,,,,,
{16}5bqq1qq5b[1:2],,,,,,,,,,,,,,,,
{16}1bqq5qq1[1:2],,,,,,,,,,,,,,,,
{16}5b,,,,,,,,6b,,,,,,,,
{16}7bqq4qq1[1:2],,,,,,,,,,,,,,,,
{16}4bqq1qq6b[1:2],,,,,,,,,,,,,,,,
{16}1bpp4[1:1]*qq6[1:1],,,,,,,,,,,,,,,,
{16}A7/B7/A3/B3/Cf,,,,,,,,,,,,,,,,
{16}3x/4h[4:1],,,,2h[8:3],,4h[4:1],,,,,,4h[4:1]/3,,,,
{16}2h[8:3],,4h[4:1],,,,,,34,,3,,26,,,,
{16}6x/5h[4:1],,,,7h[8:3],,5h[4:1],,,,,,5h[4:1]/6,,,,
{16}7h[8:3],,5h[4:1],,,,,,65,,6,,73,,,,
{16}1-7[8:1],,1,,5-3[8:1],,5,,2,,2,,26,,,,
{16}8-2[8:1],,8,,4-6[8:1],,4,,7,,7,,37,,,,
{16}12,,12,,38,,38,,47,,47,,5<4[4:3]*>6[4:3]/6,,56,,
{16},,,,,,,,,,,,,,,,
{16}2-5[8:1]/5,,,,12,,8-4[8:1],,,,48,,2^5[8:1],,6-1[8:1],,
{16}2,,6,,,,3-5[8:1]/8h[4:1],,,,3,,8,,26,,
{16}7-4[8:1],,,,87,,1-5[8:1],,,,51,,7^4[8:1],,3qq1[8:1],,
{16}7,,3,,,,5-8[8:1]/2h[4:1],,,,5,,2,,73,,
{16}4-8[8:1],,7-4[8:1],,4V61[4:1],,7,,,,3,,3-8[8:1],,7-3[8:1],,
{16}3,,7,,,,4h[4:1]/1-5[8:1],,,,1,,6,,7,,
{16}4-6[8:1]/8-6[8:1],,48,,,,,,1-6[8:1]/3-6[8:1],,13,,,,,,
{16}8,,8,,1,7,1,7,2-6[8:1],6,2,6,2xb,,,,
{16}3-8[8:1]/7,,,,34,,6-2[8:1],,,,26,,3-5[8:1],,8-4[8:1],,
{16}3,,8^3[8:1]*^5[8:1],,,,8,,,,17,,2-4[8:1]/6,,5,,
{16}6-1[8:1]/2,,,,65,,3-7[8:1],,,,73,,6-3[8:1],,1-6[8:1],,
{16}6x,,1,,4x-7[8:1],,8-3[8:1],,4x,,8,,6xb,,,,
{16}2-4[8:1],,4,,2x,,1-5[8:1],,5,,1x,,8-6[8:1],,6,,
{16}8x,,1-5[8:1],,5,,1x,,2-4[8:1],,4,,2x,,,,
{16}5v3[8:1]/1v3[8:1],,15,,,,,,8v3[8:1]/6v3[8:1],,68,,,,,,
{16}7-3b[8:1],,2,,7b/3bw7[8:1],,,,B3/C/B7f,,,,1xb,,,,
{16}2-4[8:1],,,,2x-6[8:1]/7,,7,,2,,8,,1x-5[8:1]/8,,,,
{16}1-3[8:1]/7,,7,,1x-5[8:1],,8,,1,,6,,2x/6,,,,
{16}7-5[8:1],,,,7x-3[8:1]/2,,2,,7,,1,,8x-4[8:1]/1,,,,
{16}8-6[8:1]/2,,2,,8x-4[8:1],,1,,8,,3,,2/6x,,5,,
{16}4-1[8:1],,,,6/4x-7[8:1],,6,,4-8[8:1]/2,,2,,6/4x,,,,
{16}7/5-8[8:1],,7,,3/5x-2[8:1],,3,,7/5-1[8:1],,7,,5x/3,,3,,
{16}2-4[8:1],,1-5[8:1],,2b,,1,,8-4[8:1],,7-5[8:1],,8b,,7,,
{16}1^4[8:1],,8^5[8:1],,1b,,8,,{32}1,2x,3x,4x,8,7x,6x,5x,{16}1bw5[8:1],,,,
{16}1b>7[2:1]/Cf/B3/B2/B5f/B6,,,,,,,,8,,8,,8xw4[8:1],,8,,
{16}8xb<2b[2:1]`C`B3/B2/B5f/B6,,,,,,,,1,,1,,1w5[8:1],,1,,
{16}1xb`C`B3`B2`B5f`B6,,,,,,2x/8x,,3^8[8:1]/7-4[8:1],,,,3b/7b,,,,
{16},,26,,26,,,,{24}1x,2,3,4/5x,6,7,1x,2,3,4/5x,6,7,
{16}2xb/8h[4:1],,2,,2,,1h[4:1]/6b,,6,,6,,3b/7h[4:1],,3,,
{16}3,,5b/2h[4:1],,5,,5,,1b^4[8:1]/7^4[8:1],,26,,1b/7,,,,
{24}1b,2,3,4,5x/1b,8,7,6,1b/5x,2,3,4,8b/5x,7,6,5,8b/4x,1,2,3,8b/4,7,6,5,
{16}1bh[1:1]/4x,,,,,,,,,,,,,,,,
{48}8bp5[4:15],72,63,{16}54,,,,,,,,,,,,,,,
{16},,,,,,,,,,,,,,,,
{16},,,,,,,,,,,,,,,,
{16},,,,,,,,,,,,,,,,
{16}8p5[4:15]*q3b[4:10],,,,,,,,,,,,,,,,
{16},,,,,,,,,,,,,,,,
{16},,,,,,,,,,,,,,,,
{16},,,,,,,,,,,,,,,,
{16}Ch[16:1]/B2/B7/E3/E7/B3/B6,,,,,,,,,,,,,,,,
{16},,,,,,,,,,,,,,,,
{16},,,,,,,,,,,,,,,,
E
