&title=道の先、空の向こう
&artist=Rita
&first=-0.118
&des=无敌金馆长
&lv_5=13
&inote_5=(131){4},,,,{1}6h[1:1]/5>3[2:1],
{24}A4,D4,{12}A3,,,,,,,,,,,{1}4h[2:3]/3>6[8:5],
{12}5h[2:1],{4},,,{16},{48},{24}A6,D6,
{4}3h[4:1]/A5,{8}4,2h[4:1],,5,{12}5,{24},,A3,D4,
{4}7h[4:1]/A4,{8}5,6h[4:1],,5,4,3,
2h[4:1]/1h[4:1],,,8h[4:1]/1h[4:1],,,{4}8b>6[4:3]/7b<1[4:3],
{16},,,,,,,,,,,,,,,,E4/B3,
,,5,{8}4,6h[4:1],,5,6,4,
{4}3h[4:1]/B7/E7,{8}4,5,{2}6<1[8:1]/3<5[8:1],
{16}E7/B7/B3/E4,,,6,{8}5,7h[4:1],,8,1,2,
{12}3h[4:1]/7h[4:1],{24},,,,,,,,E6,E5,{4}E4,{16}3,3,{8}4,
{16}E6/B6,,,4,{8}5,3h[4:1],,4,3,5,
{4}6h[4:1]/B2/E3,{8}4,3>8[4:1],{2}6>4[8:1],
{16}E3/B2/B6/E6,,,3,{8}4,2h[4:1],,4,1qq4[4:3],6bpp4[8:5],
,,,,,,,,{1}5h[2:1]/4q8>2q6[4:5],
7h[2:1],
6h[2:1]/5<4[2:3],
5<8[2:1],
7-4[2:1]/5-2[2:1],
5-1[2:1],
8q1[1:1],
{8}2h[8:5],,,4h[4:1],{16},,,,3,3,{8}4,
{4}4/5b,{8}7h[8:3],5,,4,{4}4,
3/4,{8}2h[8:3],4,,5,5,4,
{4}6/5h[4:1],{8}7,7,,6,{4}5/6,
3/4h[4:1],{8}2,2,,4,3,5/4,
{4}6pp3[4:3],{8}2,2,,,{4}E5/B4,
2q5[8:5],{8}7,7,,,{4}E6/B6,
5/4,{8}6,5,7/4,{16}3,4,3,4,{8}2-6[8:1],
,7,{4}7,{16}6,6,{8}5,{4}8<5[8:1]/4>1[8:1],
{8},,2V48[8:3],2,,5,{4}5,
{8}6,5-1[4:1],{4}7-5[8:1],,2/6,
4/7h[4:1],{8}5,6h[4:1],,3,4,5p4[8:5],
,7pp3[8:3],{16},,,,,,,,,,1x,1x,
{4}8x-4[4:1],{8}4-2[8:1],3,,1,8,7V51[4:1],
,2V48[4:1],,,,,6,5,
4/7,3,4,5/2>5[8:1],,7,8,1-4[8:1],
,6,7,8>3[8:1],,6,7,8,
{1}5bqq2[2:1]/1bqq6[2:1],
{8}6/3>6[8:3],E3,E2,E1,E8,E7,{16}4x,4x,{8}5x,
{4}6<1[8:1]/1>3[8:1],1/6pp5[4:1],{8}3,3,2,1,
8>3[8:1],7,6,5-1[8:1],,2/5,3,4,
{4}3>8[8:1]/8<6[8:1],8pp5[4:1],{8}6,6,7,8,
1-5[8:1],2,3,4>1[8:1],,4/5<4[8:3],,2,
2h[4:1],,,3,4,5/2,6,5,
{4}7/4<7[8:1],{8}2,1>4[8:1],,1/6<1[8:1],,6/5qq4[4:1],
,,,7,6/5,{16}3,4,{8}3,2-5[8:1],
,2/6-2[8:1],,6/4-1[8:1],,4/8,{16},,7,8,
{4}6<1[8:1]/1>3[8:1],1/6pp5[4:1],5>2[8:1],{8}3,1,
8>3[8:1],7,6,5-1[8:1],,2/5,3,4,
{4}3>8[8:1]/8<6[8:1],8pp5[4:1],{8}5>2[8:1],6,7,8,
3/1-5[8:1],{16},,,,3,3,{4}4-7[8:1],4/2,
{8}6-4[8:1],5,3,1,7-5[8:1],6h[4:1],,,8-5[8:1],
5-1[8:1],{4}1-4[8:1],,6/2,
{8}3-5[8:1],4,6,8,2-4[8:1],3h[4:1],,,1-4[8:1],
4-2[8:1],5-8[8:1],8-6[8:1],,,,1b/5bpp5[4:3]*qq5[4:3],
{1},{24}6,
5<4[12:7],{12}4>5[24:13],{4},,,{16},{48},{16}E4/B3,
,,5,{8}4,6h[4:1],,5,6,4,
{4}3h[4:1]/B7/E7,{8}4,5,{2}6<1[8:1]/2>4[8:1],
{24}E1,C,{12}E5,{24},,{8}5/6,7h[#0.4580154],{16},,{8}8,1,2h[8:7]/7h[8:7],
{1},{4},{32}6,
5,4,3>6[8:27],
E
