&title=キティ
&artist=ツミキ
&first=7.400009
&lv_5=14
&des_5=fuyuchan_mizukifan
&inote_5=
(145){4},,,,,,{16}5,
4,,6-1[16:3],,3/5,,6x,
{4}4h[2:1],{8}2x,1,{16}7,3,6,5,8-3[0.3103##0.3103],4,6,8x,
{4}5h[8:3],{8}1x,{16}7,5,6,4,{8}5,2/6,{16}3,4,
{8}2-8[12:1],3,2/6-4[12:1],7,6,{16}2,1,{8}3,6h[8:3],
7,4,{16}3,5,1,4,2,5,3,6,4q1[4:1],8,,2xh[16:5],
{8}4bx,{4},{16}7,5,6,4,8,2,2,4qq4[8:3],4pp4[16:5],3,
3,{2},{16}7,5,6,4,8,{8}3,
{12}8h[12:1],3h[12:1],4h[24:5],{48}1x,{24},{48}2,{24},{8}3,{12}5h[12:1],1h[12:1],8h[24:5],{48}2x,{24},{48}3,{24},{48}4,{12},{48}B7,
C,B3,{12},{16}1,1,7,7,2,2,6b,6b,{256}6b,{128},,,,,,,{256}4xh[128:1],{16},5b,5b,5b,3xV14[0.2069##0.5172]*pp4[0.2069##0.5172],
{2},{16}7x,5,6,5,7,4,6,3-8[8:1],
,8-4[8:1],,3,,A8,,6x,{8}6x-3[8:1],3-5[16:1],6,{16}A3,2,
{8}2,1/7,{16}6,5,,3,{8}4,{16}7,8,6,1,7,6x/2h[4:1],
,5,,5,,3,4,3,6,4,5,4,7,5,6,5,
{8}8b-6[12:1],2,{16}8,1,,4,{8}5/4,{16}3,4,2,5,3,6-8[8:1],
,8-4[8:1],,6,,A8,,2x,{8}2x-6[8:1],6-4[8:1],2,{16}A6,7,
{8}7,8/2,{16}3,4/2,,6,{8}5/7,{16}2,1,3,8,2,3x/7h[4:1],
,4,,4,,6,5,6,3,5,4,5,2,4,3,4,
5b/1bh[16:3],{8},{16}8h[16:1],1,{8},{16}7,5,6,4,5q2<7[16:11],3,6,4,5,
,3<6[16:5],{8}3,{2},{8}E7,{16}2,2,
{8}8h[8:1],{16}3,3,{8}7h[8:1],{16}4,4,{8}6h[8:1],{16}3,3,{8}5h[8:1],4,
8qq7[4:1]/2pp3[4:1],6/4,{4}8/2,{8},1,{16}6,3,5,4,
7bh[16:3],{8},{16}8h[16:1],{4}7h[4:1],{16}1,8,5,6,{8}3,{16}8,1/7,
,3p5[0.3103##0.6207],{24}6,4,5,{4}4h[4:1],{8},2,{16}6,5,,7h[16:3],
{8},1,{16}6,5,,2,4,3/4,,8-5[16:7],1v4[8:3],6,3,8x,
1x,{2},{16}6/2,{24}8,7,8,{16}7,6,4,5,
{8}3b,{16}7,8,6-3[8:1]*-2[8:1],5,7,8,{4}6x,{16}1,7,4,5,
{8}3b,{16}6,5,7-3[8:1]*-2[8:1],8,6,5,{4}7x,{16}4,5,3,6,
{8}2h[8:1],{16}1,7/3,,6,5,6,{8}7h[8:1],{16}8,6/2,,3,5,4,
A6,A3,A7,A2,{8}8h[8:1],{16}1,7/2,,6,{8}5/6,{16}1,7,4,5,
{8}3b,{16}7,1,5-8[8:1]*-1[8:1],4,6,3,{4}5x,{16}2,1,3,8,
{8}4bh[8:1],{16}6,4,8-3[8:1]*-4[8:1],1,6,5,{4}8x,{8}C,{16}5,4,
6-1[8:1],{8},{16}5,{8}6/4,2h[8:1],{16}7-4[8:1],{8},{16}8,{8}1/7,3h[8:1],
{16}5,1,6,2,7,3,8,4,{4}7bxh[2:9]/C,{8}2q6[4:1],2,
{2}2,{4}5h[16:3],{8}4,4,
{4}3h[8:1],2h[8:1],5h[16:3],{8}6,8,
1,2,5,4h[4:1],{4},{8}3,2,
1,8,6,5,4,3,2,1,
{4}8b-4[16:13],7,{16}7,{8},{16}7,{8}7,6,
{4}5b-1[4:3],4,{16}3,{8},{16}3,{8}3,2,
{16}2bx,{8},{32}3b/8h[16:1],4,{16}5,{8},{32}6b/1h[16:1],5,{8}4,7b/1b,5b/3b,2b/8b,
5b/4bh[8:1],{16}5,4,7,2,5,4,{64}5x,6x,7x,1x/8xh[16:3],{16},,,{48}1>1[4:1],2>1[0.431##0.3621],3<1[0.4483##0.3103],4<1[0.4655##0.2586],{24},{48}1x,2x,3x,4xh[16:1],{24},{4}1bx-6-2-5b[8:3],
{8}3xh[4:1]/A1f,A6f,{4}A2f,{8}8,1,
7/2-6[8:1],3,2/8-4[8:1],7,8/2>5[8:1],3,2/8p3[4:1],7,
{4}3>8[4:1],8q5[4:1],5<8[4:1],8V64b[16:5]*V24b[16:5],
{2}A8f,{8}2/8,{16}6,5,{8}5/7h[8:1],{16}3,4,
4/2h[16:3],{8},{16}1,{8}7/3,6/4,{4}5h[4:1]/3v6[8:1],{8}3,7v2[8:1],
,7/4h[4:1],,8,{24}5,6,5,7h[8:1],{12},{24}4,3,4,2h[8:1],{12},{16}8,
5,6,5,7,4,5,4,6,6,4,4,7,7,2,2,
8,1,6,3,7,2,{8}5bxh[4:1],{64}4x,3x,2x,1xh[16:3],{16},,,{48}8<8[4:1],7<8[0.431##0.3621],6>8[0.4483##0.3103],5>8[0.4655##0.2586],{24},{48}8x,7x,6x,5xh[16:1],{24},{4}8bx-5-1-4b[8:3],
{8}6xh[4:1]/A8f,A5f,{4}A1f,{8}8,1,
2/7<4[8:1],6,7/1-5[8:1],2,1/7-3[8:1],6,7/1q6[4:1],2,
{4}6<1[4:1],1p4[4:1],4>1[4:1],1p5b[4:1]*q5b[4:1],
{8}A1f,{4},{8}7/3,{16}6,5,{8}6,6/4,6/3,
{16}6/2-5[8:1],{8},{16}6,2/6-2[8:1],{8},{16}8,{4}6/8<4[8:1]*>4[8:1],8,
{8}3/7-4[8:1],3,{16}7/3-7[8:1],{8},{16}1,{4}3/1<5[8:1]*>5[8:1],{8}1,A5f,
,7h[8:3],1,2,3,{16}5,6,{8}5,7/4,
{16}3,4,{8}3,5/2,{16}1,7,4,6,3,7,{32}1xw5[2.4828##0.1552]*-5[2.4828##0.1552],2/8,3/7,4/6,{8}1bxh[1:1],
{4},,,,,1bxh[100:1]/Cf,
{16}8x,5,7,4,6,3,8,1,
7/2,{8},{16}5,6,4/7,,2-5[32:3],1,2,3,2x,,7h[8:1],,8,
6,1,5,2,4,3,1,4,8,5,7,7,5,5,4,4,
2,{8},{16}4,3,5/2,,7-4[32:3],8,7,6,7x,,2h[8:1],,1,
3,8,4,7,5,6,8,5,1,4,{8}5/2,7-4[32:3]/3-8[32:3],6/2,
{4}7b/3b,{16}6,2,7,3,{8}8,{16}4,5/3,,6,4,5,
{8}3h[8:1],{24}1,2,1,{16}2,3,5,4,6,8,{8}7,1-5[32:3]/8-4[32:3],7/2,
{4}8b/1b,{16}3,6,4,5,{8}2,{16}5,4/6,3,5,2,7/1,
{8}7h[16:1]/1h,{24}2x,8,3,5,4,6,5,7,2,8,3,5,2-7[8:1]*-5-8-3[8:9],{12},{8}6/4,2x,
E
