&title=Distance
&artist=佐咲紗花
&first=-0.97
&des=GAHOU
&lv_5=12+
&inote_5=(130)
{48},,,,,,,,,,,,,,,,,,,,,,,,,,,,,,,,,,,,,,,,,,,,,,6/2h[48:14],5,
{8}4h[8:3],,,1q1[8:3],,,,,
{8}5,4,6h[2:1],5q5[8:3],,,,,
{8}7,1,8q8[8:3],2h[4:1],,,,4q4[8:3],
{8},,,,5q3[4:1],,3,,
{8}2,5,4,7p2[4:1],,,,,
{8}3,8,1,6>3[4:1],,,,,
{8}2,8,1h[2:1],7h[8:3],,,,,
{8}6b/5bq5[8:5]*qq5[8:5],,,,,,,,
{8}3,4,5,6,3,4,5,6,
{8}3,4,5,6,3p7[8:1]/7p3[8:1],,,,
{8}6,5,4,3,5,4,3,2,
{8}5,4,3,2,1v4[8:1]*v6[8:1]/4,,,,
{8}3,4,5,6,4,5,6,7,
{4}8-4[8:1]/4,3-7[8:1],5-8[8:1],,
{8}3,4,5,6,4,5,6,7,
{8}8/2,3,4<2[8:3],5,6,,,,
{8}3/6,5,4,3,2/6,5,4,3,
{8}5/2,4,3,2,4<7[8:1]/1>4[8:1],,,,
{8}2/7,8,1,2,3/7,8,1,2,
{8}6/3,7,8qq8[4:1],1,8pp8[4:1],,,,
{8}5,4,3,2,7/1,6,5,4,
{4}3b>8[8:1]/5b,7b<4[8:1]/3b,7b/4bw8[8:1],,
{8}6/3,4,5,6,7/5,6,7p2[4:1],8,
{8}1,,,8/3p6[4:1],3,,,,
{1}4qq5[8:5]/7h[4:3],
{4}8qq1[2:1],,4,3,
{8}1h[8:3]/2>1[8:5],,,,,4,5,6,
{4}3<6[4:1]/7p2[4:1],,,8<1[8:5],
{4}4,,,3pp8[2:1],
{16}8,,,,,,,,7h[16:3],,,6h[16:3],,,5,,
{12}2b/4b,,3b/5b,,4b/6b,,7b/5b,,6b/4b,,5b/3b,,
{8}2/4,2,2/1,2,5-1[8:1]/3,6,7/5,,
{16}8/1,,,7/2,,,6/3,,5b-8[8:1]/4b-1[8:1],,,,,,,,
{16}7<4[8:1]/8,,,1,,,2,,4q8[8:1]/3,,,2,,,1,,
{16}2>5[8:1]/1,,,8,,,7,,5p1[8:1]/6,,,,,,7,7,
{16}8>3[8:1],,,7,,,8,,1<6[8:1],,,2,,,1,,
{16}6/8,,,4/2,,,5v7[8:1]/4v2[8:1],,5/4,,,,,,2,1,
{8}2>5[8:1],,1,8,7<4[8:1],,8,1,
{4}2-4[8:1]/4,7b-1[8:1]/2b,7b-4[8:1]/5b-1[8:1],7b/5b,
{8}2V84[4:1]/4,,5,6,7V51[4:1],,5,4,
{16}3,,2,1,2,,7,8,7,6,7,5,7,4,7,3,
{16}8b/2b>5[8:1],,,8,2,,7,,5p1[8:1]/6,,,6,5,,7,,
{16}7<4[8:1]/8,,,1,7,,2,,4q8[8:1]/3,,,,,,2,2,
{16}1p5[8:1],,,3,1,,2,,8q4[8:1],,,6,8,,7,,
{16}8/5,,,4/2,,,7-4[8:1]/3v8[8:1],,7/3,,,,,,5,1,
{8}5<2[4:1],,2,3,4>7[4:1],,7,6,
{4}5-7[8:1],5b/2b-4[8:1],8b-3[8:1]/2b-6[8:1],8b/2b,
{8}7/5V31[16:3],,7,6,5V71[16:3],,2,3,
{16}4,,4/5,,5/6,,5,6,1,8,3,4,2<4[8:3],1,3,,
{8}7h[4:1],,,8p8[8:3],,,,,
{8}4,5,3h[2:1],4p4[8:3],,,,,
{8}2,8,1p1[8:3],7h[4:1],,,,5p5[8:3],
{8},4,3,2,1-4[8:1],,8,,
{8}7,4,5,3qq4[8:3],,,,,
{8}6,5,7qq8[8:3],5,,,,,
{8}1,8,2,1q7[4:1],,,,,
{24}4bpp4[2:1]*qq4[2:1],,,,,,,,,,,,,,,,,,,,,5,6,7,
{16}8<1[1:4],,,,1,,,,1,,,1,,,1,,1,,,1,,,,1,,,,,1,,,,,,1b,,
