&title=きゅびずむ
&artist=原口沙輔
&first=0.73
&des=磷化锆
&lv_5=13+
&des_5=磷化锆
&inote_5=
(185){4},{8},,,,,,7bh[4:3]/8bh[4:3],
,,,,,,1bh[8:7]/2bh[4:3],
,,,,,,,,4bh[4:3]/6bh[4:3],
,,,,,,3bh[4:1]/5bh[8:3],
,,,1bh[8:3],,7bh[8:1],,,{4}2/4,
{8}6,1/7<4[8:1],,2,,,3,
3,5,6/1h[4:1],,7,{4}7h[8:11]/4h[4:1],
{8},5,6,8,1,2,3,4,
,5,4/6,3,{4}5/2b>4[8:1],E2/B1/B2,
{8}6b,6,3x,7h[4:1],,4>8[8:3],{4}4x,
{8},5,{4}5xh[4:1],{8}1,2/7pp4[16:9],3x,7,
,,{4}2xV46[4:1],{8}2,6,,7x<6-4[8:1]/8xv3[8:1],
,,,2x-7[8:1],,2xv5-3[8:3],,2x,
,,6x,5<8[4:1],,1,2x,3V17[4:1],
,3/6,5,4,1,1x-4>3-8>1b[8:9],,,{4}6h[8:1],
7h[8:1],8h[8:1],{8}1b,1b-3-5-7[8:3],
,,,,,D1,{4}E1,
{8}3/5,5h[4:3]/3h[8:1],,,,4V28>4[1:1],,,,6,
,7,,7,,,{4}6h[4:1],
4,{8}3,2/6,,2<7[8:1]/6>3[8:1],
,,,3x-5[8:1]/7x-1-3b[16:5],,3x/7,,,6h[4:1],
4h[4:1],,5h[8:3],,,{4}3-8[8:1],
7-4[8:1],1-4[8:1],5-8[8:1],5v3[16:3],
{8}D1,D8,D7,D6,D5,D4,D3,D2,
2x/8,7,4x,{16}6,5,{8}6x,4/7xh[4:1],,3,
Cf,6,,5V71<5[1:1],,4h[8:1],,3,
,2h[8:1],,1,,2,,4,
{4}8/5-2[8:1],5/6,{8}5,6<1[8:1]/2>5[8:1],,,,A8/A4,
D8/D4,A7/A3,{16},,6,6,{4}1xh[4:1],
{8}5h[8:3],,,4x-1[8:1],,4x/8-5[8:1],,8x,
,2,{4}1x-7<6[8:1],1x,5-8[8:1]*-2[8:1],
{8}5,,,2-4[8:1]/6-8[8:1],,2/6,,3,
6,4,5-3[8:1],{24}A6/D7,D6,A5,{4}D5/A4,8-6[8:1],
{8}8,3V57[4:1],,3,{4}8-5[8:1],8x-2[8:1],
8-6[8:1],8-4[8:1]/4-8[8:1],4bx/8bx,5b/1b-3[8:1],
{8}1,6V42[4:1],,6,{4}1-4[8:1],1x-7[8:1],
1-3<4[8:1],1-5[8:1]/5-1[8:1],5bx/1bx,4b/8b<4<8[1:1],
2h[8:1],{8}3,3-1[8:1],,,,,{4}1x>5>1[1:1],
{8}1/7,7h[4:1],,,{4}6h[2:1],
{8},,,5h[8:1],8,4/1,2/5,3/6,
4/5,2/7x,2x/7,2/7x,2x/7,8b,{4}C,
3b>1<7[8:3],{8}3/8,7V13b[8:3],,5,{4}4-7b[16:3],
4bp8[8:3],{8}4x,8>3<4[8:3],,,6,7,
{4}7bh[4:1],{8}5h[8:1],8,{4}7x-5-7[4:1],{8}7x,1-3-1b[4:1],
,1x,{4}7,{16}8,7,6,5,1,2,{8}4b/3bqq8[8:5],
,7,6,5-7[8:1],,5,,1/8x,
,8-3[8:1]/1v4b[8:1],,8/1,,4x,5x,6<2[4:1],
,2>6[4:1],,6<1<7[8:3],,2,,4h[4:3],
,6x,5x,3x,2x,1x,{4}3bx/8bx,
2b-8v5[8:3],{8}2b/6b,5>2b[4:1],,7,{4}8x-5b[8:1],
8-2-4[8:3],{8}8x,4>3>1<8b[8:3],,,7,6,
{4}6bh[4:1],{8}1,7,6x-8-6[4:1],5,6bx,4x-2-4b[4:1],
,4x,{4}6,{16}5,6,7,8,2,3,{8}4bqq1[8:5],
5b,6,7,8b-6[8:1],,,,4bx-8[8:1],
,5-2[8:1]/4v1[8:1],,5b/4b,,8,7,6>2[4:1],
,2<6[4:1],,6V42[4:1],,2>4<5b[32:7],,8h[8:5],
,6x,7x,1xh[4:1],,,{4}C,
2b/6b,3h[8:1]/4h[8:1],3h[8:1]/5<1qq6[1:1],3h[8:1],
4xh[8:1],4h[8:1],5h[8:1],5h[8:1],
4q8>3[8:7],5h[8:1],5xh[8:1],7x-4[8:1],
{16},,,,D4,E4,C,E8,{8}D8,{16}1x/6x,2x/5x,{4}4x/3xw7[8:1],
,1h[8:1],2h[8:1]/5q7[2:1],1h[8:1],
8h[8:1],1h[8:1],8h[8:1]/2q4[2:1],7h[8:1],
6h[8:1],5h[8:1],{2}7q7[1:1]/3q3[1:1],
,,{1}3bh[8:23]/6bh[8:23],
{8},,,,,,,,,,,,,,,,2b/7b,
3b/6b,{16}2,5,3,5,{8}4,5,{4}1b,
{8}8h[4:1],E2,E3,E4,7h[16:3]/E5,E6,E7,6h[4:1]/E8,
E1,E2,5h[8:1]/E3,E4,4xh[4:1]/B5,B7,E1,{16}1bx,2bx,
{8}3bx/8bx,,,4,{4}1bx/5bx,8-5[8:1]*<7-5[8:1],
8b-2>3[8:1]*-3[8:1],8b-4[8:1],{8}8b,{32}2x,1x,{96},,{24}8x,7x,6x,5x,4x<5>8[6:11],,,{8}8,
,,7,,,{4}6,
{8},5,,,4,4,{4}C,
{8}4x<5>5[8:13],,,1,,,{4}A2,
{8},3,4,4,3b,3b,{4}2x,
{8}3h[4:1]/4xh[4:1],,,5h[8:3]/6h[8:3],,,,,2xh[4:1]/4h[4:1],
,,8/7,{2}1q4[8:5],
{8},1,8,7,6,5,3/4x,3x/4,
7,5x/6x,5x/6x,5x/6x,4x>2[8:1]/7xp1[8:1],C,,,8b,
2,7x,4,,1<8<7<6[16:3],2x,3,
,5,{4}5xh[8:1],{8}5/4,3/6qq1[2:1],2x,2h[4:1],
,,{4}3x,{8}3,4,5x,3/6,
,5,4x,3-6[8:1],{16},5x,6,7,8,1,{8}2x<7[4:1],
,4,3,2x>5[4:1],,4,,2xV46[4:1],
,2,8>3[8:1],8x,,5x-8<7-4<5b[8:9],,3,
{4}3h[8:1],3h[8:1],2h[8:1],{8}1b,1b-7-2-6[16:7],
,,,,,5xh[64:1],4xh[64:1],6b/3b,
{16}4,5,4,6,{8}4,2bx/6b,{16}3,4,5,6,7,8,{8}1,
{4}2bx/4bV28>4[4:3],{8}4/6,8,,7,{4}5-8b[8:1],
5V31[8:3],{8}5x,1>5b[8:3],,6,{4}7,
7bh[4:1],{8}4,8/3,{4}8x-6-8[4:1],{8}8x,2x-4-2b[4:1],
,2x,{4}8,{16}8,1,7,2,6,3,{8}5b/4bqq1[8:5],
,5,6,7b-5[8:1],,7,,2xv5[8:1],
,2x<8[8:1]/1x-6[8:1],,1b/2b,{16},,7x,5x,7x,5x,{8}7x>3[4:1],
,3<7[4:1],,7-1>2<8[8:3],,4,5,5h[8:5],
,7x,6x,4x,3x,2x,{4}7b/1b,
2bV46>2[4:3],{8}Cf,6,,8,{4}1x-6b[8:1],
1V36[8:3],{8}1,6>2b[8:3],,8,{4}7h[8:1],
{8}5bh[4:1],1,2,3h[4:1],{4}6x-8-6[4:1],{8}6x,4x-2-4b[4:1],
,4x,{4}6,{16}6,4,7,3h[8:1],{8}8,1b/2bpp5[8:5],
,3,4,5-7[8:1],,5,,4x-2[8:1],
,5v8[8:1]/4>3-1[8:1],6,5/4,,7x,7x,7b<3[4:1],
,3>7[4:1],3,7V53[4:1],,3b<5<6b[32:7],3,1bh[2:1],
,7x,8x,2x,3x/8b,A6,,2,
,A3,,7,,2,,6h[16:13],
,B6,B3,B8,1w5b[8:1],1,{32}1b,{64}E1/B8/E8/B1/E2,Cf,{16}E5,
E
