&title=キリトリセン
&artist=40mP
&first=0
&des=はくこう
&lv_5=12+
&inote_5=(165)
{1},,
{8}
35,,3h[8:13]/5,,,4,,,,4,,,,4,
,5,46,,4/6h[8:13],,,5,,,,5,,,,5,
,4,36,,3h[8:13]/6,,,4,,,,4,,,,4,
,5,63,,6h[8:3]/3,,,2-5[8:1],4,25,
,8-4[8:1],5,48,,2-5[8:1],4-7[8:1],,
,,1b/8b,,24,3,4,5/6<1[32:5],,5,,4-8[8:1],,8,,5,
5pp4[8:3],,51,,1,2,3,4h[4:1]/5,,6h[4:1],,3h[4:1],,8h[4:1],,2,
37,,1b/8b,,75,6,5,4/3>8[32:5],,4,,5-1[8:1],,1,,4,
4qq5[8:3],,6,6,,6,7,8/1h[4:1],,6h[4:1],,2h[4:1],,4h[4:1],,3,
34,,17,,56,,28,2h[4:1]/8,
,4h[4:1],,5h[4:1],,7h[4:1],,6,
6pp5[8:3],,,4,,3qq5[8:5],,5,
,,,,8,,7,,
56,,82,,43,,71,7h[4:1]/1,
,5h[4:1],,4h[4:1],,2h[4:1],,3,
3V15[8:3],,,5,,6V84[2:1],,4,
,,,,1,,2,,
34,,17,,56,7,28,2h[4:1]/8,
,4h[4:1],,5h[4:1],,6,7,8,
8qq8[8:3],,1,1,,2qq7[2:1],,7,
,,,,6,,2,{16}8,7,56,,,,
{8}82,,43,2,71,7h[4:1]/1,
,5h[4:1],,4h[4:1],,3,2,1,
1-5[8:1],,8,8-4[8:1],,2-6[8:1],,5pp8[16:7],
,,,,3,,{16}7,,1,2,
{8}3b-5[8:1]/4b,,,6,6h[8:3],,,5-3[8:1],,3,,24,2h[8:3]/4,,,3,
3-5[8:1],,,6,6h[8:3],,,5-3[8:1],,3,,25,2h[8:3]/5,,,4,
3<6[8:1],,8b,,7,7-4[8:1],8,7-1[8:1],
,3-8[8:1]*-5[8:1],,3,,5,5-7[8:1],4,
5-2[8:1],,5,,8,8V24[16:3],2V46[16:3],4b,
,8>3[8:1],2>5[8:1],4<7[8:1],,1b,,,
2b-4[8:1]/6b-1[8:1],,26,,38,,42,2h[4:1],
,3qq5[8:3],,8-4[8:1]/3,,8,,6,
4-8[8:1]/7-4[8:1],,47,,51,1h[4:1],,2>5[8:1],
,4,,8-3[8:1],,4-7[8:1],4-1[8:1],,
,,1b/8b,,1,8,7,6-4[12:1],
,4-7[8:1]/6,,8-4[8:1],,8/2pp8[8:3],,2,
,,,7,16,2v4[8:1]/5,,2/5<8[8:1],,1w5[8:1],,1,,37,3b/7b,,
2b-6[8:1],,2/8-4[8:1],,68,,57,7h[4:1],
,6pp4[8:3],,1-5[8:1]/6,,1,,3,
5-1[8:1]/2-5[8:1],,52,,48,8h[4:1],,7-4[8:1],
,5,,1<6[8:1],,5-2[8:1],5-8[8:1],,
,,8b/1b,,8,1,2,3-5[12:1],
,6-3[8:1]/3,,2-6[8:1]/6,,2/7qq1[8:3],,7,
,,,2,83,7/4qq3[4:1],,4pp4[4:1],
,4>8[4:1],,8<4[4:1],,3,2,1,
84,,4b/5b,,71,6,5,4/3>8[32:5],,4,,5-1[32:5],,1,,4,
4qq5[8:3],,48,,8,7,6,5h[4:1]/4,,3h[4:1],,6h[4:1],,1h[4:1],,7,
26,,4b/5b,,28,3,4,5/6<1[32:5],,5,,4-8[32:5],,8,,5,
5pp4[8:3],,3,3,,3,2,1/8h[4:1],,3h[4:1],,7h[4:1],,5h[4:1],,6,
6p3[4:5],,,,,,,4h[8:9],
,,,,,,,,
6qq3[4:5],,,,,,,5h[8:9],
,,,,,,,,
1>4[16:7],,5,,6,,7,,
8p4[16:7],,4,,3,,2,,
1q6[16:7],,5,,6,7,8,1bp8[4:1]/8bq1[4:1],,
,,,,2,8-4[8:1]/3-7[8:1],,
8b<5[8:1]*>3[8:1]/3b,,8w4[8:1],,8,,42,2h[4:1],
,3qq5[8:3],,8p4[8:1]/3,,8,,6,
4-8[8:1]/7-4[8:1],,47,,51,1h[4:1],,2-5[8:1],
,4-8[8:1],,8>3[8:1],,4q1[16:3],4<7[8:1],,
,,2b/8b,,1,8,7,6-4[12:1],
,3-6[8:1]/6,,7-3[8:1]/3,,7/2pp8[8:3],,2,
,,,7,16,2/5pp6[4:1],,1pp1[4:1],
,1<5[4:1],,5>1[4:1],,1,8,7,
6,6-4[12:1],1,6-1[8:1],,2-5[8:1]/6,3,82,
,6-4[12:1],4,6,3,7-3[8:1],3,7,
2,2-4[12:1],8,2-8[12:1],,7-4[8:1]/2,6,17,
,2-4[12:1],4,2,5,1-5[8:1],5,1,
7b,,,5,6h[4:1]/4,,4,3h[4:1]/5,
,4,25,3,4/6h[4:1],,5p4[8:3],4,3,,
,2,35,4/6<3[4:1],75,68,,
{16}
5,,45,,3,4,2,,18,,8,7,6,5,
{8}
4-7[8:1]/3-1[8:1],,4b/3b,,28,3,4,5/6<2[4:1],,2<6[4:1],,4-8[8:1],,4,,5,
5pp4[8:3],,51,,1,2,3,4h[4:1]/5,,6h[4:1],,3h[4:1],,8h[4:1],,4,
3-1[8:1]/7-4[8:1],,3b/7b,,71,6,5,4/3>7[4:1],,7>3[4:1],,5-1[8:1],,5,,4,
4qq5[8:3],,8,8,,6,7,8/1h[4:1],,6h[4:1],,2h[4:1],,
{16}
,,12,8,7,6,
{1}
2b<3[4:19]/5bpp8[4:19],,,,,
{32}
,,,,,,,,
2b,1-5[8:1],8-4[8:1],7,,,,,
,,,,,,,,
,,,,,,,,
{24}
6,5,4,
E
