&title=Wake up Decker!(TV size)
&artist=SCREEN mode
&first=0.08
&des=阿加慕斯
&des_5=阿加慕斯
&lv_5=13+
&inote_5=(163){4}8h[4:1]/2pp5[4:3],{8},7h[4:1],,,{4}6h[4:1],
{8},3h[4:1]/7qq4[2:1],,,{4}3>8[8:1],3,
{8}5h[4:1]/8>7[8:9],,,6h[4:1],,,{4}7h[4:1],
{8},8h[4:1],,,{4}1w5[8:1],1,
8,8,8,8,
1/8,1/7,1/6,1/5,
{8}1/2,3/8,4/7,5/6,{16}4,5,3,6,2,7,1,8,
{4}1-5[4:1],{8},,,,8b-5[8:1]/5b>8[16:3],8b/5b,
{16},,,,,,,,3,3,7,7,4,4,{8}5,
{16}2/6,,,3,{8}3/4,5,{4}4/6,{16}1,8,2,7,
3/6,,,2,2/4,,,8/1,,,8,8,2,2,{8}6,
{16}4/5,,,7,{8}5/7,1,{4}2/8,{16}3,6,2,7,
1/8,,,6,6/5,,,2/7,,,4,4,6,6,{8}2,
{16}8/1,,,2,{8}1/2,5,{4}4/6,{16}2,7,3,6,
4/5,,,7,5/7,,,8/1,,,7,7,4,4,{8}6,
{16}7/5,,,2,{8}2/4,8b,{4}8b>5[8:1]*-5[8:1],8b,
{8},7<4[8:1],7,8pp3[8:3],8,5,6,7,
,,,4/5<4[8:3],,5/4,4>5[8:3],4,
,,2qq5[8:3],2h[2:1],{16},,,,,,,,3,
2,1,8,5,6,7,8,2,3,4,5,8,7,6,5,
{8}4/8,1>4[8:1],7<4[8:1],1q3[8:3],7,1,7,7,
,,,1-5[8:1]/7-3[8:1],8,1/7,,,{4}6/1>6[4:1],
{8}6V41[4:1],6,{16},,,,,,6,7,
{4}8pp6[8:3],{16},,,,,,,,1,8,{8}2/7,
,2>5[8:1],1,7-3[8:1],8,1-5[8:1],8,1/7p4[4:1],
,7/3,,2,1V35[8:1],5v2[8:1],{4}1/7-3[8:1],
{8},1-5[8:1],8,1/7<4[8:1],8,7/2-6[8:1],1,2-8[8:1]/7-3[8:1],
,7pp4[8:5]/2>5[8:1],,2/7,,,,,,5/3,
4/6,5/7,1/8<4[8:1],3/4v7[8:1],8/1>4[8:1],1,
,,,,1/5,3/7,8/4,6/2,
{4}1v3[8:1]/5v7[8:1],1>1[8:7]/5<5[8:7],{16},,,,,,,,,,,,,,,,,,4,
4,5,5,{8}3/6,
1/8,{16}3,2/4,,6,{8}7/5,,3/7pp4[2:1],{32}3/7,2/6,1/5,8,{8}7,
5,5,6,6,,3-7[8:1]/7-3[8:1],{4}3/7,
{16},,,,7<4[8:1],,,8,{8}7-3[8:1],2,7-1[8:1],4,
7<5[8:1],2,3pp5[6:1]/7pp1[6:1],3,,,,,4/5,
{16}2/1,3/8,,7/8,{8}6/1,,2/6qq1[2:1],{32}2/6,3/7,4/8,5,{8}6,
8,8,7,7,{16},,,,,,4-7[8:1]/1-4[8:1],2/5,
{8}3/6,{16},,,,1v6[8:1]/8v3[8:1],7/2,{8}6/3,{16},,,,8/4,7/3,
6/2,,,3/7,,,8/4,4,6,6,2,2,7,7,1,1,
{1}2>8[2:1]/7<1[2:1],
{16}3,5,3,6,3,7,2,2,7,1,7,2,8,8,4,7,
4,6,4,5,3,3,6,2,{4}8b-5[8:1]*>5[8:1],8b,
{16}2,3,4,5,6,7,8/1,2,3,4,5,6,3/7,2,1,8,
7,6,5/4,3,2,1,8,7,{4}2v4[8:1]/6v8[8:1],6/2,
{16},,1,1,5,5,2,2,6,6,3,7,4,8,5,1,
4,8,3,7,2,6,2,6,{8}1/5,1/5,{24}1,2,3,5,6,7,
{8}8b/1b,{16}2,2,6,6,3,7,4,8,5,1,4,8,3,7,
2,6,1,5,2,6,{8}3/7,{32},,,,2,3,4,5,7,8,1,2,3,4,5,6,
{8}2h[4:1]/7pp3[4:3],,,3h[4:1],,,{4}4h[4:1],
{8},5<3[2:1],,,{4}4-8[8:1],4,
{8}7h[4:1]/4qq8[4:3],,,6h[4:1],,,{4}5h[4:1],
{8},4>6[16:7],,,{4}5v2[8:1],5,
{16}1,8,2,7,3,6,4,5,3,4,2,5,1,6,8,7,
1,1,6,6,2,2,7,7,3,8,4,7,5,6,{8}5,
5/6,5/6,4/7,4/7,3/8,3/8,1/2,1/2,
{16}2,1,3,8,4,7,5,6,{32}5,4,3,2,1,8,7,6,{8}5b>8[8:1]/8b-5[8:1],8b,
{16},,,,,,,,3,3,7,7,4,4,5,5,
2/6,,,3/4,{8}3/4,5,{4}4/6,{16}1,8,2,7,
3/6,,,2/4,2/4,,,8/1,,,8,8,2,2,6,6,
4/5,,,7/5,{8}5/7,1,{4}2/8,{16}3,6,2,7,
1/8,,,6/5,6/5,,,2/7,,,4,4,6,6,2,2,
8/1,,,2/1,{8}1/2,5,{4}4/6,{16}2,7,3,6,
4/5,,,7/5,5/7,,,8/1,,,7,7,4,4,6,6,
7/5,,,2/4,{8}2/4,8b,{4}8b>5[8:1]*-5[8:1],8b,
E
