&title=虚无さん(feat.flower)
&artist=¿?shimon
&first=-0.05
&des=Atscamy_
&lv_5=14
&inote_5=(115){4},{16}3h[8:1],,,5h[16:3],,,4,3h[8:1],,5,{8}5h[8:1],
{4}2h[16:3],{16}6,1,{8}5h[8:1],{16}1,5h[8:1],,1,1/5h[8:1],,,5h[8:1],
{8}1,5h[8:1],{16}2h[8:1],,,8h[16:3],,,1,2h[8:1],,8,{8}8h[8:1],
{4}3h[4:1],{8}7b,{24}4/6,5,4,3,2,1,8,7,6,{8}5,{32}3,4,3,4,
{4}1bV35[16:1],{8}1/7-4[16:1],8,{16}7b/4,3,2,1,8>3[16:1],6,{8}6,
{4}8b/7-4[16:1],{16}2>5[16:1],2,{8}1,{4}2b/8-4[16:1],{16}2>5[16:1],1,1,6,
{4}6/2b,{8}5/7-3[16:1],2/1,7b/1>4[16:1],{16}6,7,{4}8-4b[16:1],
8b/2V48[8:1],2/5V73[8:1],5/1,{16}2,4,{32},,6,5,
{8}7b,3,{4}2h[4:1]/3>8[8:1],,2h[4:1]/8-5[8:1],
,2h[4:1]/5>1[8:1],,3h[4:1],
8h[8:1],{8}3/8h[8:1],2,8h[8:1]/3<5[16:1],2,{4}3/8h[8:1],
{8}7h[8:1],4h[4:1],,1,4h[8:1]/7<5[16:1],1,{4}7/4h[8:1],
3h[8:1],2h[4:1]/4-7[8:1],,2h[4:1]/7>3[8:1],
,2h[4:1]/3<6[8:1],,1h[4:1],
6h[8:1],{8}1/6h[8:1],2,6h[8:1]/1-5[8:1],2,{4}1/6h[8:1],
{8}7,5,8b-3[16:1],{16}5,5,{8}8b<5[16:1],{16}2,2,{8}8b,3b,
{16}5,5,2,2,{8}7<4[16:1],{16}1,1,,2,{8}2-5[16:1],3/4,2,
{16}7b,6,7,8,{8}7/1>4[16:1],{16}6,6,{8}1b,{16}8,8,,7,{8}7,
6/5V73[8:1],4,{4}5/2V48[8:1],2/7V15[8:1],7/5,
{8}3/6,{16}2,7,,1,{8}8/1,5/7-3[16:1],3,{4}1/7,
{16}8,8,6,6,{8}1b>4[16:1],{16}8,8,,7,{8}7-4[16:1],6/5,7,
{16}2,3,2,1,{8}2/8<5[16:1],{16}3,3,{8}8b,{16}1,1,,2,{8}2,
{4}5h[8:1]/3h[2:1],8h[32:1],7h[32:1],{12}6h[32:1]/2h[32:1],,5h[48:1]/1h[48:1],
{24},,,{8}5,{4}1bh[8:1],{24}1b,1b,1b,1b,1b,1b,,,,,,,,,,,,,{8}1/2h[8:1],
5,8/7h[8:1],4,1/2h[8:1],5,
8/7h[8:1],4,{16}8,8,3,3,{8}1-5[16:1]/2-6[16:1],3/8,{4}2/1,
{8}5/6,4/7,7/3h[8:1],5,2/6h[8:1],4,7/3h[8:1],5,
4/2-8[16:1],3/5,{4}2b/4,{8}2/4>4[4:1],3/5,{4}4/2,
8b,{16}7/3,3h[16:3],,7,{8}1b,{16}2/6,6h[16:5],,2,,2,
{8}8b,7,{16}8-2[8:1],7,4-8[8:1],5,{2}8-6[8:1],
{8}5/2,3/4,2/7h[8:1],4,7/2h[8:1],5,2/7h[8:1],4,
7/2,1/8,8b/7b,6b/5b,3b/4b,2b/1b,8h[8:1],7h[8:1],
{24}1,2,3,4,,,{4}8h[4:1],{16},2,{8}2/8,1/3,2/4,
{16}3/5h[4:1],,,,,3,{8}3/5,4/6,5/7,{24}8/6h[4:1],1,2,3,4,5,
7,8,1,2/6,,,{8}5/3,2/4,{24}1/3h[4:1],8,7,6,5,4,2,1,8,7/3,,,{8}8/2,
7/1,{24}6/8h[4:1],5,4,3,2,1,7,6,5,4/8,,,{8}7/5,6/4,
{24}3/5h[4:1],2,1,8,7,6,4,3,2,1/5,,,{8}2/4,3/1,{24}8/2h[4:1],7,6,5,4,3,
1,8,7,6/2,,,{8}7/1,8/6,{24}5/7h[4:1],4,3,2,1,8,6,5,4,3/7,,,{8}6/4,
5/3,{24}4,4,4,3/5,,,{8}4/7,{48}5,6,5,6,5,6,5,6,5,6,5,6,5,6,5,6,5,6,
{4}5,{8}2>5[16:1],{16}8,8,,7,{8}7-4[16:1],6/5,7,
{16}2b,3,2,1,{8}2/8<5[16:1],{16}3,3,{8}8b,{16}1,1,,2,{8}2,
3/4V26[8:1],5,{4}4/7V51[8:1],7/2V84[8:1],2/4,
{8}6/3,{16}7,2,,8,{8}1/8,4/2-6[16:1],6,{4}8/2,
{16}1,1,3,3,{8}8b<5[16:1],{16}1,1,,2,{8}2-5[16:1],3/4,2,
{16}7,6,7,8,{8}7/1>4[16:1],{16}6,6,{8}1b,{16}8,8,,7,{8}7,
{4}4h[8:1]/6h[2:1],1h[32:1],2h[32:1],{12}3h[32:1]/7h[32:1],,4h[48:1]/8h[48:1],
{24},,,{8}4,{4}8bh[8:1],{24}8b,8b,8b,8b,8b,8b,,,,,,,{4}4>7[4:5],
4h[8:1],,3h[8:1],
,2h[8:1],{8},1,4-1[8:1],1qq1[4:1],
,,,,,4,7-4[8:1],4qq4[4:1],
,,,,,,,,{4}5,
5/3h[8:3],5,5/2h[8:3],
5,5/1h[8:3],5,5/8h[4:1],
{8}5,7,5/8,1,2/5,3,4/5,5,
6/5,7,{4}5/8bw4b[2:1],{8},,,,,,4b/5b,
3b/6b,2b/7b,8b/1b,,,,,8/7h[8:1],
4,1/2h[8:1],5,8/7h[8:1],4,
1/2h[8:1],5,{16}1,1,6,6,{8}8-4[16:1]/7-3[16:1],6/1,{4}7/8,
{8}4/3,5/2,2/6h[8:1],4,7/3h[8:1],5,2/6h[8:1],4,
5/7-1[16:1],6/4,{4}7b/5,{8}7/5<5[4:1],6/4,{4}5/7,
1b,{16}3/7,7h[16:3],,3,{8}5b,{16}6/2,2h[16:5],,6,,6,
{8}4b,3,{16}4-6[8:1],3,8-4[8:1],1,{2}4-2[8:1],
{8}4/7,6/5,7/2h[8:1],5,2/7h[8:1],4,7/2h[8:1],5,
2/7,8/1,1b/2b,3b/4b,6b/5b,7b/8b,1V35[8:1]/2V46[8:1],7/8,
{4}1/2,{32}6,5,6,5,7,4,7,4,8,3,8,3,1,2,1,2,{8}8b/3b,1b/2b,
4b/3b,5b/6b,{4},,{48}1,2,3,4,5,6,7,8,1,2,3,4,
{4}5,{48}7b,6,5,4,{12}2h[48:1],2h[48:1],{48}8b,7,6,5,{12}3h[48:1],3h[48:1],{48}1b/2b,3/8,4/7,6/5h[16:3],,,,,,,,,{12}6h[48:1],
7h[48:1],8h[48:1],{48}1b,2,3,4,{12}7h[48:1],7h[48:1],{48}2b,3,4,5,{12}8h[48:1],8h[48:1],{48}3b,4b,5b,6b,{12}1h[48:1],1h[48:1],
{48}4,3,2,1,8,7,6,5,4,3,2,1,7b,6,5,4,{12}2h[48:1],2h[48:1],{48}8b,7,6,5,{12}3h[48:1],3h[48:1],{48}1b/2b,3/8,4/7,5/6h[16:3],,,,,,,,,{12}4h[48:1],
3h[48:1],2h[48:1],{48}8b,7,6,5,{12}3h[48:1],3h[48:1],{48}7b,6,5,4,{12}2h[48:1],2h[48:1],{48}6b,5b,4b,3b,{12}1h[48:1],1h[48:1],
{48}5,6,7,8,1,2,3,4,5,6,7,8,{4}1bh[4:1],
E
