&title=Bad Routine
&artist=D.J. Spugna
&first=-0.09
&des=yydg
&lv_5=13
&inote_5=(130){4},,6/1h[4:1],{8}4,2,
{4}3/8h[4:1],{8}5,7,{4}6/1h[4:1],{8}4,2,
{4}3/8-5[8:1],2,{8}3h[4:1]/4h[8:1],{4},{8}5,
6h[4:1]/5h[8:1],{4},{8}4,3h[4:1]/4h[8:1],{4},{8}5,
6h[4:1]/5-1[8:1],5,{4},{8}3/8,8h[8:1],5,7,
6/1,1h[8:1],4,2,3/8,8h[8:1],5,7,
6/1-4[8:1],1,{4}7,3/5h[8:1],2/5h[8:1],
1/5h[8:1],8/5h[8:9],{8}7,4,6,2,
8,4,6,2,{2}5b,
,2>5[2:1],
8>3[2:1],5<8[8:3],
3<6[8:3],8>3[4:1],
6<1[16:3],{4}5b-8[4:1],6,
7-2[4:1],8,1-4[4:1],2,
3-6[4:1],4,5-2[8:1],5/3-8[8:1],
3/1-6[8:1],7/1,{8}8/7-5[8:1],4/3-1[8:1],7-3[8:1],3,
{4}7,8b/1b,5-8[16:1]/4-1[16:1],5/4,
{8}4/6,2,3/5,7,6/4,2h[4:1],4,6,
8h[4:1],5,3,1h[4:1],4,6,2/7-3[8:1],7,
4-6[8:1],4,{4}8h[8:1],{8}8/1-5[16:1],2,1/8-4[16:1],{16}7,3,
{8}8,2h[8:1],5,1/6,{4}7-4[16:1]/8-3[16:1],8/7,
{8}5/3,7,6/4,2,3/5,7h[4:1],5,3,
1h[4:1],4,6,8h[4:1],5,3,7/2-6[8:1],2,
5-3[8:1],5,{4}1>4[16:3],4b-8[16:3],8b<5[16:3],
5b,{8}8b,4/7,{4}5-2[16:1]/6-1[16:1],5/6,
{8}3/5,1,6/4,8,3/5,2>5[8:1],4,6,
8<5[8:1],4,2,1>4[8:1],4,6,8-4[8:1],8,
3-1[8:1],3,{4}8h[8:1],{8}1/8-4[16:1],7,8/1-5[16:1],{16}2,6,
{8}1,7h[8:1],4,8/3,{4}1-6[16:1]/2-5[16:1],2/1,
{8}4/6,8,3/5,1,6/4,7<4[8:1],5,3,
1>4[8:1],5,7,8<5[8:1],5,3,1-5[8:1],1,
6-8[8:1],6,{4}3>4[4:3],{2}8h[4:3],
,{8}2-5[8:1],1,{4}4-7[8:1],
{8}1-6[8:1],1,{4}4-7[8:1],{8}2-5[8:1],1,{4}4-7[8:1],
{2}8>3[8:1],{8}8-3[8:1],7,{4}5-2[8:1],
{8}7-4[8:1],7,{4}5-2[8:1],{8}8-3[8:1],7,{4}5,
{16}3b/7b,8b/4b,{8},{16}2b/6b,5b/1b,{8},6-1[8:1],5,{4}7-4[8:1],
{8}5-2[8:1],5,{4}8>3[8:1],{8}6-1[8:1],5,{4}7-3[16:1],
{2}3<5[16:1]/7>1[16:1],{8}1-6[8:1],2,{4}3-8[8:1],
{8}2-5[8:1],2,4,4b,6,{16}7,1,{8}7,{16}8,2,
{8}8,{16}1,3,{8}1,4b/2b,3,{16}2,8,{8}2,{16}1,7,
{8}1,{16}8,6,{8}8,5b/7b,6,{16}7,7,8,8,1,1,
2,2,3,3,4,4,5h[2:1],3h[2:1],{2},{8}8-4[16:1]/7-4[16:1],
3/5,{4}8/7,3h[2:3],5,
,5,,5,
{2}2-7[8:1],{4}8h[2:3],5,
,5,,5,
{2}1<6[16:1]*>4[16:1],{8}5/6-8[16:1],{16}4,4,{8}6,{16}2,2,
{8}4/3-1[16:1],{16}5,5,{8}3,{16}7,7,{8}5/6-8[16:1],{16}4,4,{8}6,{16}2,2,
{8}4/3-8[16:1],{16}5,5,{4}3,{8}7-1[16:1],7,5-7[16:1],5,
3,{16}3-7[8:1]*-5[8:1],3,{8}8,3,,1,7/3,{32}1-5[8:1],2/8,3/7,4/6,
{8}5-1[8:1],1-3[16:1]*-7[16:1],{4},5<8[16:1]/4>1[16:1],5/4,
{8}2,{16}5<8[8:1],3,4,3,{8}5,,3h[4:1],2,1,
7h[4:1],6,5,3h[4:1],2,8,2/7h[8:1],5,
7/1h[8:1],4,2/8h[8:1],5,8/1-5[16:1],6/2,1/8-4[16:1],{16}7,3-8[16:1],
{8}8,3h[8:1],,5/2,{4}8>3[16:1]/7<4[16:1],8/7,
{8}7,{16}4>1[8:1],6,5,6,{8}4,,6h[4:1],7,8,
2h[4:1],3,4,6h[4:1],7,1,7/2h[8:1],4,
2/8h[8:1],5,{4}7/1>4[8:3],3b<6[8:3],5b<7[4:1],
7b,{8}1b,8/3,{4}5>2[16:1]/6<1[16:1],5/6,
{8}3,{16}6<1[8:1],4,5,4,{8}6,,2<7[8:1],3,4,
5>2[8:1],6,7,8<5[8:1],1,2,1h[8:1],3,
1/8h[8:1],6,8/1h[8:1],3,1/8-4[16:1],3/7,8/1-5[16:1],{16}2,6-1[16:1],
{8}1,6h[8:1],,7/4,{4}2>5[16:1]/1<6[16:1],1/2,
{8}6,{16}3>8[8:1],5,4,5,{8}3,,7>2[8:1],6,5,
4<7[8:1],3,2,1,{4}8h[4:1],6,
1h[4:1],3-7[4:3],{2}3h[4:3],
