&title=Chromatic Burst
&artist=JAKAZiD
&first=0.12
&lv_5=13+
&des=The Musical Ghost
&inote_5=(170)
{4},,,,,,,
{16}4bx,3,2,1,
{8}8bxh[4:1]/4bxh[4:1],,,,6bxh[16:3]/1bxh[16:3],,,
7bx-3-5[8:5]/3bx,,,2,,1,,8,,
{4}6h[4:7],B6,,B5,,B4,,B3,
{8}1bxh[4:1]/5bxh[4:1],,,,{16}3bx/8bx,,,4bx/5bx,,,
{8}2bx-6-4[8:5]/6bx,,,7,,8,,1,,
{4}3bxh[4:1],B3/E3,6bxh[4:1],B6/E7,
{8}5,5,46,46,{16}3,7,2,8,1s5b[8:4],1,1,1,
{4}1,,,8-5[8:1]/4v1[8:1],
{16}8b/4b/E5f,,,,2bx,,5,,5,3,,3,6,4,6,4,
6,,3,,5,,4,,4,7,,7,3,5,3,5,
{4}3bx-1[8:1]*-8[8:1],3,7bx-5[8:1]*-4[8:1],7,
2bx-5[8:1]*-7[8:1],2,6bx^4[8:1]*^8[8:1],6z2[8:1],
{8},1b,1b,,{16}5x,3,,3,6,3,6,,
4,7,4,,5,2,5,,3,6,4,7,5,8,5,,
7hx[8:1]/6hx[8:1],,,E8f/E6,,,,,2hx[8:1]/3hx[8:1],,,E2/E4f,,,,,
3x/5x,3xh[8:1]/5xh[8:1],,,4xh[8:1]/7xh[8:1],,,
2xh[8:1]/6xh[8:1],,,8x/3x,,1-5[8:1]/2-4[8:1],,,,
1b-7[8:1]/2b-6[8:1],,,,1b/2b,,,,4x,5,,5,3,6,3,6,
3,,5,,4,,7,,2,5,,5,3,6,4,7,
{4}5bx-8[8:1]*^3[8:1],5,1bx^7[8:1]*-4[8:1],1,
6bx-1[8:1]*-3[8:1],6,2bx^8[8:1]*^4[8:1],2z6[8:1],
{8},8b,8b,,{16}4x,6,,6,3,6,3,,
5,2,5,,4,7,4,,63,,B6hf[8:1]/B5hf[32:5]/E5hf[32:6]/B4hf[32:7]/B3hf[32:8],,,,,,
{16}8x/7x,8hx[8:1]/7xh[8:1],,,1x/6x,,,1hx[8:1]/2xh[8:1],,,8x/3x,,,
7hx[8:1]/5xh[8:1],,,
6hx[8:1]/4xh[8:1],,,5hx[8:1]/3xh[8:1],,,4hx[8:1]/2xh[8:1],,,,,,1,8,1,8,
{8}1bx,2,37,4,51,6,{16}7x-4[8:1],8,,8,
7,,3,,2x-5[8:1],1,,1,2,,7,,6xpp2[4:3],5,7,4,
{8}6,,4,,3,3,4>6[4:3],4,
4x,,5,,5,,5,5,
34,2,15,6,74,3,21,8,
76,5,43,2,65,7,{16}81,2,3,4,5x-1[8:1],,
6x,,,,8bx,,8x-4[8:1],,2x,,,,3bx,,
3x,,7bx/8x,1bx/6x,,,2bx/1x,8bx/3x,,,4x/5bx,,1xs5b[8:1]/8bxz4[8:1],,,,
{8}1b/8b,,62,5,48,3,{16}2x-5[8:1],1,,1,
2,,6,,7x-4[8:1],8,,8,7,,2,,3xqq7[4:3],4,2,5,
{8}3,,5,,6,6,5-7-1-3[4:3],5,
5x,,4,,4,,4,4,
3-1[8:1]/5-1b[8:1],2/6,,,6-8[8:1]/4-8b[8:1],7/3,,,
{16}1,7,1,7,1,6,2,5,3,8,4,7,5,6,,,
1x-5[8:1],2,3,4,5,,,,8x-4[8:1],7,6,5,4,,,,
E5,E4,A3,B5,B4,B3,B6,C,B2,B7,B8,B1,A7,E8,E1,,
{4}1bxh[4:1],6h[4:1],5h[4:2],,
{16}6,4,6,4,7h[4:1],,,,3,4,2,,,,2,,
{4}6xh[4:1],3h[4:1],2h[4:2],,
{16}3,1,3,1,4h[4:1],,,,8,1,7,,,,7,,
{4}8xh[4:1],5h[4:1],4h[4:2],,
{16}5,3,5,3,6h[4:1],,,,2,1,3,,,,3,,
2xh[8:1]/8xh[8:1],,,2h[8:1]/4h[8:1],,,7xh[8:1]/1xh[8:1],,,7h[8:1]/5h[8:1],,,
3xh[8:1]/7xh[8:1],,,3h[8:1]/5h[8:1],,,6xh[8:1]/2xh[8:1],,,6h[8:1]/4h[8:1],,,
6xh[8:1]/3xh[8:1],,,,5,4,,4,
5bx,,,,7,8,7,6,7,,2,1,2,3,2,,
{8}7-4[8:1],8-3[8:1],7,8,,E5,E6,E7,
{16}2xb,,,,2,1,3,1,4,,7,8,6,8,5,,
{8}2-5[8:1],1-6[8:1],2,1,,E5,E4,E3,
{1}7xh[4:3]/A8f/E8/E1/B8h[8:5],
{1}2xh[4:3]/A1f/E2/E1/B1h[8:5],
{4}6xh[4:1]/E8f/B8,E6/B6,3xh[4:1]/E2f/B1,E4/B3,
{4}8x/E5,2x/B8,6x/Ch[2:1]f,,
{4}8b<1b[4:14],E2,,E3,,E4,,E5,,E6,,E7,,E8,,E1,
{8}24,24,35,35,46,46,57,57,
78,12,34,56,78,26,34,,
{32}8x,1x,{16}8x,1,7,2,6,3,5,4b,,,3b/5b,,,
{8}3bqq4<8[8:5]/5bpp4>8b[8:5],{4},,,A8f/D8/D1,
{16}6b/2b,,5,,12,,5,4,5,,7,1,,7,6,5,
4x/3x,,1,8,,27,,,3,4,3,,6,5,7,4,
6,,1,,34,,5,4,5,,2,8,,2,3,4,
5x/6x,,7,,34,,2,,8-4[8:1],1,7,2,8bx,,,,
3b/7b,,2,,81,,6,5,6,,1,8,,1,2,3,
4x/5x,,7,8,,2,1,,5,4,5,,2,1,3,8,
2,,8,1,,8,7,6,5bx/4bx,,,3bx/6bxz2[8:1],,,7bx/2bx,,,,,,
1x,,1xh[8:3],,,,8,,8-4[8:1],,,,
{8}8b/1b-5[8:1],2,6-8[8:1]/1,7,6/2-4[8:1],3,2/5-1[8:1],6,
5/3-5[8:1]*-6[8:1],,3bx-1[8:1]*-8[8:1],,3bxw7b[8:1],,3bx,,
{16}7x,6,5,4,1x,2,3,4,8h[8:1],,2,7h[8:1],,1,6h[8:1],,
3x,5,1,8,4,6,2,,{8}1bxv4[8:1]/7bxv4b[8:1],2bx/6bx,1bx/7bx,,
E6h[8:6]/B6h[8:3]/B5h[8:4]/A6h[8:2]/A5h[8:5]/D6f,,,,,,,
E2h[8:6]/B2h[8:3]/B1h[8:4]/A2h[8:2]/A1h[8:5]/D2f,,,,,,,Cf,,
{8}1b/8,2/7b,3b/6,4/5b,{16}8b/6,,,1/3b,,,
4bx/5bhx[2:1],,,,,,,,{32}4,3,2,1,8,7,6,5,
{8}4bhx[8:7]/1bhx[8:7],
E
