&title=D/N/A
&artist=25時、ナイトコードで。 × 鏡音リン(曲:Azari)
&first=0.12
&des=H/S/N
&des_5=H/S/N
&lv_5=13+
&inote_5=(150)
{4}C,C,C/1xs5[4:1],,
{32}7h[4:1],,,,,,,,B4,E5,,,6,,,,6h[4:1],,,,,,,,B4,E5,,,,,,,
{32}2h[4:1],,,,,,,,B5,E5,,,3,,,,3h[4:1],,,,,,,,B5,E5,,,,,,,
{32}8h[4:1],,,,,,,,E3,B3,,,7,,,,6h[4:1],,,,,,,,E3,B3,,,,,,,
{32}1h[4:1],,,,,,,,E7,B6,,,2,,,,
{4}3/4w8b[8:1],A4/B4/Cf/B8/A8,
{16}2/6-4[8:1],,4/8,,2-6[8:1]/6,,8,,2/6,,,5/7,,,4/6,,
{16}7/3-5[8:1],,5/1,,7-3[8:1]/3,,1,,7/3,,,4/2,,,5/3,,
{16}2-8[8:1]/6,,4/8,,2/6-2[8:1],,4,,2/6,,,1/3,,,4/8,,
{4}7b-2[8:1],A7f/3-6[8:1],A3f/8-3[8:1]*-5[8:1],A8f,
{32}7h[4:3],,,,,,E1,,,,,,E3,B3,B4,,,,,,,,,,5,,,,,,,,
{32}2h[4:3],,,,,,E1,,,,,,E7,B6,B5,,,,,,,,,,4,,,,,,,,
{32}8h[4:3],,,,,,B2,,,,,,A3,D4,A4,,,,,,,,,,5>3[8:1],,,,,,,,
{4}5-2[8:1]/6h[8:5],5-1[8:1],5,A7/D8/A8,
{8}2qq7[2:1],2,3,4,5h[4:1],,,,7pp2b[2:1],7,6,5,4h[4:1],,,,
{8}1-6[8:1],,1/3-8b[8:1],,3/7-4[8:1],,1-5[8:1]/7,,1<6b[8:1]*>4b[8:1],,1w5[8:1],,1,,2b/8b,,
{16}3/7v4b[8:1],,6,5,7,,3,,1h[8:1],,5,2h[8:1],,6,3h[8:1],,
{16}7-1b[8:1],,4,4,7-4b[8:1],,3,,2/7,,,1,,,1/5,,
{16}6/2v5b[8:1],,3,4,2,,6,,8h[8:1],,4,7h[8:1],,3,6h[8:1],,
{16}2-7b[8:1],,,,2/5-1b[8:1],,,,5/1w5b[8:1],,,,B1/C/B5,,,,
{16}2/6,,3/7,,2/6,,1/5,,4/8V24b[8:1],,,,8/5,,6,,
{16}7,,4/8,,1<6[8:1]/5>2[8:1],,4/8,,1V35b[8:1]/5,,,,1/5,,7,,
{4}8<6[8:1]*-4[8:1],8>2[8:1]*-5[8:1],8-3[8:1]*-4[8:1],8,2-5[8:1]/6-1[8:1],2/6,3h[8:1]/7h[4:1],,
{4}1b>6[2:3]*>6[2:3],,D7/E7,,D8/E8,,D1/E1,,1<4[2:3]*<4[2:3]/C,,D3/E3,,
{8}2,2,2,2,2,2,2,2,
{16}2/4,,3,5h[8:1],,2,6h[8:1],,Chf[4:1],,,,,,,,
{16}4x,5,4,5,4x,5,4,5,4x,5,4,5x,4,5,4x,5,3x,5,3,5,3x,5,3,5,3x,5,3,5x,3,5,3x,5,
{16}2x,6,2,6,2x,6,2,6,3x,7,3,7x,3,7,3x,7,4x,8,4,8,4x,8,4,8,1x-6[8:1]/5x-2[8:1],,,,B1/B2/B3/B4/B5/B6/B7/B8/Cf/E2/D2/E6/D6/E4/D4/E8/D8,,,,
{384}1bx>4[8:1],8bx<5b[8:1],,,,,,,,,,,,,,,,,,,,,,,,,,,,,,,,,,,,,,,,,,,,,,,,,,,,,,,,,,,,,,,,,,,,,,,,,,,,,,,,,,,,,,,,,,,,,,,1bxs5b[8:1],8bxz4[8:1],,,,,,,,,,,,,,,,,,,,,,,,,,,,,,,,,,,,,,,,,,,,,,,,,,,,,,,,,,,,,,,,,,,,,,,,,,,,,,,,,,,,,,,,,,,,,,,1bx,8bx,,,,,,,,,,,,,,,,,,,,,,,,,,,,,,,,,,,,,,,,,,,,,,,,,,,,,,,,,,,,,,,,,,,,,,,
{16}3/6,,,2/7,,
{16}1-5[8:1],,7-3[8:1],7,1,,7,,5x>1[8:1],,,,5/7,,6,,
{16}5pp5b[4:1],,,,5qq5b[4:1]/1,,,,2,,,1x,,,1x,,8>3b[8:1],,8<5b[8:1],,8-4b[8:1],,,,,,,,8xw4b[8:1],,8x,,
{16}8bx/Cf,,,,1/7,,,,2<7[8:1]/E7/B6,,3,4,2,,B5,,6xv1[8:1],,5,4,6,,B3,,2xv8b[8:1]/8xv2b[8:1],,,,2>3-5b[8:1]/8<7-5b[8:1],,,,
{16},,,,8/2,,,,7>2[8:1]/E3/B3,,6,5,7,,B4,,3xv8[8:1],,4,5,3,,7v6-4[4:1],,D1/E1,,D2/E2,,D3/E3,,,,
{16}1q5[4:1]*q5[4:1],,,1h[16:3],,,,,1p5[4:1]*p5[4:1],,,1h[16:3],,,,,
{8}1,1/5,2/6,3/7,4/8<4[8:1],,
{32}3/D8,D7,D6,D5,2,,,,
{16}1>5[4:1],,,1h[16:3],,,,,1<5[4:1],,,1h[16:3],,,,,
{8}1,2,3,4,5>1[8:1]*>1[8:1],,7b/5b,6,
{8}D7/E7,D8/E8,D1/E1,D2/E2,D3/E3,,B7,B2,D7,D6,D5,D4,D3,,Ch[8:1],,
{16}1,8,1,,2/7,,2/7,,3,6,3,6,4,5,4,5,4>7[4:1],,7,,6,,5,,4-8b[8:1],,,,
{32}B4,C,B8,,,,,,
{32}2b/6b,E2,B1,B8,,,,,6b/1b,E6,B5,B4,,,,,
{48}1b<6[16:1]/5bx,A2,D3,A3,D4,,,,,
{32}1b-5[16:1],A8,A7,A6,,,1b,B1,C,B5,
{32}7b,B7,C,B3,,,,,
{16}1b-5[8:1],8,2,7,1b<6b[8:1]/Cf,,,4,A1f,,3,,
{32}7b/3b,E8,B8,B1,,,,,3b/8b,E4,B4,B5,,,,,
{48}8b>3[16:1]/4bx,A7,D7,A6,D6,,,,,
{32}8b,A1,A2,A3,,,8,7,6,5,4bh[8:1],,,,,8,7,6,5bh[8:1],,,,,1,8,7,
{16}6b-2b[8:1],3,5,4,6/Cf,,,,
{384}1bx>4[8:1],8bx<5b[8:1],,,,,,,,,,,,,,,,,,,,,,,,,,,,,,,,,,,,,,,,,,,,,,,,,,,,,,,,,,,,,,,,,,,,,,,,,,,,,,,,,,,,,,,,,,,,,,,1bxs5b[8:1],8bxz4[8:1],,,,,,,,,,,,,,,,,,,,,,,,,,,,,,,,,,,,,,,,,,,,,,,,,,,,,,,,,,,,,,,,,,,,,,,,,,,,,,,,,,,,,,,,,,,,,,,1bx,8bx,,,,,,,,,,,,,,,,,,,,,,,,,,,,,,,,,,,,,,,,,,,,,,,,,,,,,,,,,,,,,,,,,,,,,,,
{16}3/6,,,2/7,,
{16}1-5[8:1],,7-3[8:1],7,1,,7,,5x>1[8:1],,,,5/7,,6,,
{16}5v7[8:1]*v3[8:1],,,,5q1[8:1]*p1[8:1],,,,5,,,2x/8x,,,3/7,,4-2[8:1]/5h[8:1],,2-5[8:1],,4/5V38[4:1],,6,,7-3b[8:1],,,,7w3b[8:1],,1x,,
{16}7bx/Cf,,,,1/8,,,,7>2[8:1]/E3/B3,,6,5,7,,B4,,3xv8[8:1],,4,5,3,,B6,,8xv6b[8:1]*v2b[8:1],,,,8q4b[8:1]*p4b[8:1],,,,
{16}8,,,,3/6,,,,2<7[8:1]/E7/B6,,3,4,2,,B5,,1,,1,,1,,1,,1,5,2,6,3,7,4,8,
{8}5b>1[4:1],,8,6,4<8[4:1],,1,3,5>1[4:1]*>1[4:1],,8,6,4<8[4:1]*<8[4:1],,1,3,5>1b[4:1],,8,6,5-8b[4:1],,8q5b[4:1],1,2V48-6[4:1],,,,5v3[8:1]*-1-3[8:1],,,,
{8}5<8[8:1]*<8[8:1],,4,3,6<1b[8:1],,5,4,4>1[8:1]*>1[8:1],,5,6,3>8[8:1]*>8[8:1],,4,5,
{8}5<8[8:1],,4,3,8x-5b[8:1]*q5b[8:1],,8,,8-6[8:1],4-2[8:1],8-4[8:1],4,8-5[8:1]*-3[8:1],,B6/C/B2,,
{16}2b/6b,,3,4,2-5[8:1]/5-1[8:1],,1/4,,2<4[4:1]/5,,,3x,,,2,,
{16}1,,6,5,7-4[8:1]/4-8[8:1],,8/5,,7>5[4:1]/4,,,6x,,,7,,
{16}8,,3,4,2-5[8:1]/5-1[8:1],,1/4,,2<4b[4:1]/5,,,3x,,,2,,1p4<5[4:1],,,,5p8>1b[4:1],,,,,,,,,,,,
{16}2-6[8:1]*-6[8:1]/6,,3,4,2,,5h[8:1],,7-1[16:1]*-2[16:1],,,7-4[16:1]*-4[16:1],,,7,,
{16}3v8b[8:1],,7<6-4b[8:1],7,3,,7,,2-7b[16:1]*-8b[16:1],,,2-5b[16:1],,,2,,
{16}7-3[8:1]*-3[8:1],,6,5,7,,4h[8:1],,2-8[16:1]*-7[16:1],,,2-5[16:1]*-5[16:1],,,2,,
{8}8z4<5[4:1],8,5s1<8b[4:1],5,3x,2x,
{16}E2,B6,B4,D8,
