&title=ベイビーユニバース
&artist=野宮真貴
&first=0
&des=ステラ MMFC
&lv_5=13
&inote_5=(164)
{1},
{4}4h[4:3]/5h[4:3],,,,3h[4:3],,,4,
{8}45,,,,5h[4:1]/6h[4:1],,,5h[8:3]/7h[8:3],
{8},,,8h[8:3]/4,,,1,,
{4}6/3h[4:3],8,,8,
{4}2/5h[4:3],8,,8,
{4}6/3h[4:1],8,{8}6,4,8,62,
{8},51,,48,,6,8,,
{4}7qq7[8:5]/2,1,,8,
{4}3pp2[8:5]/7,8,,1,
{4}5qq7[8:5]/2,1,{8}8,1,2,3h[2:1],
{8},,,{16}7,6,5pp5[4:1],,2,,{8}5,,
{4}2-4[12:1],8-6[12:1],{8}1,1-5[8:1],,
{4}2-4[12:1],6-2[8:1],5-1[8:1],{8}8,7,6,
{4}5-1[8:1],2-4[12:1],{8}8,8-6[12:1],,5-1[8:1],
{8},7,6b-2[8:1],,4,5b-1[8:1],{4},
{4}7-5[12:1],1-3[12:1],{8}8,8-4[8:1],,
{4}7-5[12:1],3-7[8:1],4-8[8:1],{8}1,2,3,
{4}4-8[8:1],7-5[12:1],{8}1,1-3[12:1],,4,
{8},82,3b,{16}6,5,6,,4b,,7,5,7,,
{4}4/2>8[4:3],6,,1>7[8:6],
{4},8,{8},1,2,3b-7[8:1],
{8},5,4-6[12:1],,1,2,3-7[8:1],,
{8}8,8-4[8:1]*-5[8:1],,8,,3,5,6/2h[8:3],
{8},,6,6,5,7,8,8-2[12:1],
{8},5-3[12:1],,8,8-4[8:1],,7-5[8:1],,
{8}3-1[12:1],,6,6,8,7,1,1-7[12:1],
{8},4-6[12:1],5,1-3[12:1],2,7-1[12:1],6,4,
{4}5<3[4:3],,,{8}4,4b-8[8:1],
{8},3b-1[12:1],,4b>6[24:7],,5,,5b-1[8:1],
{8},7,6-8[12:1],,3,4,5-1[8:1],,
{8}8,8-4[8:1]*-5[8:1],,8,,6,5,4/7h[8:3],
{8},,3,3,4,2,8,8-6[12:1],
{8},3-1[12:1],,8,8-4[8:1],,3-1[12:1],,
{8}7-5[12:1],,8,8,4,2,6<4[16:9],2<5[16:7],
{4},,,{8}5b,3b,
{8}5/1-5[8:1],,8,,6-3[8:1],5,2,,
{8}1-5[8:1],,8,,6-3[8:1],5,2,,
{8}1pp1[4:1],,8,7,6-2[8:1],3,4,5-1[8:1],
{8},4-8[8:1],,3-7[8:1],,1,1,,
{8}8-4[8:1],,4,,1-6[8:1],4,6,,
{8}8-4[8:1],,4,,1-6[8:1],4,6,,
{8}6-2[8:1]/8-4[8:1],,68,,2-5[8:1],4,6,,
{8}5h[4:1],8,7h[4:1],8,3h[4:1],8,6h[8:1],8,
{8}5b/1b-5[8:1],,8,,7-4[8:1],5,3,,
{8}4/2-6[8:1],,1,,7-4[8:1],6,1,,
{4}8v3[8:1]/4v7[8:1],48,{8}8-4[8:1],4,,3-7[8:1],
{8},4-8[8:1],,5-1[8:1],,6-2[8:1],,1pp1[8:5]*qq1[8:5],
{2},{8},,,3,
{8}7/1h[8:1],5,2/6h[8:1],4,7/8h[8:1],5,2/6h[8:1],4,
{8},64,8,53,1h[4:1],,,2/8h[8:1],
{8}4,7/3h[8:1],5,,{16}2,4,2,,{8}1,8,
{8}7b/5b,64,53,1b,24,35,46,5b<4[8:3]/7b,
{8},,5h[2:1],,,,3,2,
{8}1b-6[8:1]/4b-7[8:1],,14,,8-3[8:1],5,2,,
{8}1-6[8:1]/4-7[8:1],,14,,8-3[8:1],5,2,,
{8}1-6[8:1]/4-7[8:1],,14,,8h[8:1]/5,3,6,4/1-5[8:1],
{8},1/6-2[8:1],,6/4>1[4:1],,8,7,6,
{8}8-3[8:1]/5-2[8:1],,85,,1qq3[4:1],4,2,,
{8}1-5[8:1],,18,,5/6h[4:1],8,1,5/2>8[16:5],
{8},8,7,,4,1-6[8:1],2,1b/4-8[8:1],
{8},4b/3-7[8:1],,3b/5w1[8:1],,5b,,,
{8}8-3[8:1]/5-2[8:1],,85,,1-4[8:1],4,7,,
{8}1-6[8:1]/4-7[8:1],,14,,5-8[8:1],8,3,,
{8}8-3[8:1]/5-2[8:1],,85,,1h[8:1]/4,6,3,5/8-4[8:1],
{8},8/3-7[8:1],,3/5<8[4:1],,1,2,3,
{8}4-7[8:1]/1-6[8:1],,14,,8-3[8:1],5V37[4:1],,,
{8},2h[4:1],6,4h[4:1],8,3h[4:1],1,6,
{8}5<8[8:1]/1pp3[8:1],,15,,1,2,8<1[8:3],1,
{8}8b,,3,,{8}5-1[8:1],8,6,4b>5[8:5],
{2},{8}2,,3,4,
{8},5,4,6h[4:1]/3,,5,7,8,
{8}6/1h[4:1],,8,1,7h[4:1]/2,,5,6,
{8},5,4,63,7,15,2,84,
{4}7-5[12:1],8-4[8:1],{8}1,1-3[12:1],,
{4}4-8[8:1],3-7[8:1],4pp5[4:1],{8}1,2,3,
{4}4-8[8:1],7-5[12:1],{8}1,1-3[12:1],,
{4}6V48[4:1],{8}2,1b-5[8:1],,7,8b-4[8:1],,,
{4}2-4[12:1],1-5[8:1],{8}8,8-6[12:1],,
{4}5-1[8:1],6-2[8:1],5qq4[4:1],{8}8,7,6,
{4}5-1[8:1],2-4[12:1],{8}7qq6[4:1],7,,8,
{8},71,2b,{16}6,4,6,,2,4,2,5,2,,
{4}5/7<1[4:3],3,,8<2[8:6],
{4},1,{8},8
,7,6b-2[8:1],
{8},4,5qq1[16:5],,8,7,6-2[8:1],,
{8}1,1-5[8:1]*-6[8:1],,1,,7,5,2/4-1[8:1],
{8},,3-7[8:1],3,8-5[8:1],8,1,2-6[8:1],
{8},4-1[8:1],,2,3-7[8:1],,8-5[8:1],,
{8}1h[4:1],,4-7[8:1],4,2,2pp1[4:1],,8b,
{8},7pp6[4:1],,4,5,,52,7/4>5[8:3],
{2},{16},,7,4,61,,,,
{4}7b-4[8:1]/6b-1[8:1],67,{8}2,2,3/1-7[12:1],,
{4}3V52[16:3],1-4[8:1],{8}1-5[8:1],,16,,
{4}7-4[8:1]/6-1[8:1],67,{8}2,3,4/1-7[12:1],,
{4}4V62[24:5],1-4[8:1],{8}1-5[8:1],,16,,
{4}7-4[8:1]/6-1[8:1],67,{8}2,3,4/1-7[12:1],,
{4}5V72[16:3],1-4[8:1],{8}1-5[8:1],,16,,
{4}7-4[8:1]/6-1[8:1],67,{8}2,3,4,
{4}5b/8-3[8:1],8b/4V62[4:1],4b/1,{16}5h[8:1],,3,4,3,4,
{4}2b-5[8:1]/3b-8[8:1],32,{8}7,6,5/8-2[8:1],,
{4}5V37[16:3],8-5[8:1],8V26[4:1],8/5-3[8:1],
{4}5-8[8:1],2/5qq6[16:5],{8}1,8,{4}7h[4:1],
{4}8>3[4:1],3<6[4:1],6<1[4:1],{8}1,,
{8}6-4[12:1],7,1-3[8:1],8,{4}1b-7[8:1],{8}4-6[12:1],5,
{8}1b-3[8:1],2,7b-1[8:1],6,4b-2[8:1],5,7,6b-4[8:1],
{8},1-3[8:1],8,6,{4}7b-1[8:1],{8}7,4-2[8:1],
{8}5,7,6b,,{16}1w5[8:1],5,{8}1,,,
{8}7/3h[8:1],5,8/6h[8:1],3,1/2h[8:1],5,7h[8:1]/8bz4[4:1],5b-1[8:1],
E
