&title=Endless night
&artist=NJK Record
&first=0.065
&des=夜梨
&lv_5=13
&inote_5=(148)
{1},
{16}4>8[4:2]/6,,,,,,,,,,,,,,,,
5<1[4:2]/3,,,,,,,,,,,,,,,,
3>6[4:2]/5,,,,,,,,,,,,,,,,
4<1[4:2]/2,,,,,,,,,,,,,,,,
5>6[4:2]/3h[4:8],,,,,,,,,,,,,,,,
4q7[4:2],,,,,,,,,,,,,,,,
5V71[4:2],,,,,,,,3h[4:1],,,,,,,,
1p8[4:2]/2h[4:1],,,,,,,,1h[4:1],,,,,,,,
26,,,,36,,6,,4/6-8[8:1],,,,5,,,,
1/2-4[8:1],,,,5,,,,37,,,,15,,,,
73,,3,,63,,3,,5/3-1[8:1],,,,4,,,,
8/7-5[8:1],,,,4,,,,62,,,,84,,,,
2-4[8:1]/5,,,1,2,,8,,6-4[8:1],5,7,,3,,,,
7-5[8:1]/1,,,8,7,,1,,3-5[8:1],4,2,,6,,7,,
28,,3,4,2,,35,,6,5,7,,46,,25,,
47,,3,5,1,,6,4,8,,3,8,2,7,1,6,
8b,,,,,,,,,,5,3,1b,,,,
34,,5,,46,,7,,8-4[8:1],,3,,8,,,,
65,,4,,53,,2,,1-5[8:1],,6,,1,,7,,
46,,7,,28,,1,,3<6[8:1],,1,,3,,8,,
17,,2,,3,,4,,5-1[8:1],,6,,7,,8,,
27,,6,,17,,3,,6-1[8:1],,5,,6,,,,
24,,1,,82,,6,,3-8[8:1],,4,,3,,5,,
17,,6,,35,,4,,2<7[8:1],,4,,2,,5,,
46,,2,,35,,7,,46,,35,,7,8,7,8,
6>3[8:1],,,7,,,8,,2<7[8:1]/4h[4:1],,,,,,,,
6<1[8:1],,,5,,,4,,3<6[8:1]/1h[4:1],,,,,,,,
7h[16:3]/5,,,8,,,16,,2h[16:3]/4,,,1,,,83,,
1>4[8:1]/7<4[8:1],,,,17,,,,26,,37,,4h[8:1]/8h[8:1],,,,
3<6[8:1]/5,,,2,,,1,,7>2[8:1]/5h[4:1],,,,,,,,
3>8[8:1]/1,,,4,,,5,,6>3[8:1]/8h[4:1],,,,,,,,
1>4[8:1]/5,,,7,,,8,,1<6[8:1]/3,,,4,,,2,,
1>4[8:1]/5<8[8:1],,,,,,,,3h[8:1]/7h[8:1],,,,3,5,4,6,
2-5[8:1],,,1,2,,6,,7-4[8:1],8,6,,73,,2,,
1-4[8:1],,,8,1,,7,,6-1[8:1],5,7,,26,,3,,
8/4-1[8:1],,,6,4,,8,,7-4[8:1]/3,,,8,7,,1,,
4-8[8:1]/2-5[8:1],,,,24,,,,6,5,6,,35,,2,,
7-4[8:1]/1,,,8,7,,3,,2-5[8:1],1,3,,26,,7,,
8-5[8:1],,,1,8,,2,,3-8[8:1],4,2,,73,,6,,
1/5-1[8:1],,,3,5,,2,,3-7[8:1]/8,,,4,3,,6,,
1-5[8:1]/8,,,6,1,,7,,3>7[8:1]/4p6[8:1],,,,,,,,
5V31[4:1]/7,,,,1V75[4:1],,,,5V31[4:1],,,,8,,,,
7V13[4:1],,,,3V57[4:1],,,,1,,,,3,,,,
58,,,7,5,,46,,3,4,2,,35,,46,,
7-5[8:1]/5-1[8:1],,,,,,,,2-5[8:1]/6-1[8:1],,,,26,,,,
4V68[4:1]/3,,,,8V24[4:1],,,,4V68[4:1],,,,1,,,,
2V86[4:1],,,,6V42[4:1],,,,8,,,,6,,,,
4h[16:3]/1,,,2,5,,46,,6,5,7,,46,,35,,
7h[8:1],,1,8,2,,35,,6,5,7,5,6,,38,,
4V68[4:1]/6,,,,8V24[4:1],,,,4>7[4:1],,,,7,,,,
6V84[4:1],,,,4V62[4:1],,,,2,,3,,4,,5,,
3/7-4[8:1],,,8,7,,1,,3-8[8:1],4,2,,37,,6,,
45,,3,4,2,,45,,6-1[8:1]/2-5[8:1],,,,62,,,,
5V31[4:1]/3,,,,1V75[4:1],,,,5<2[4:1],,,,2,,,,
4V26[4:1],,,,6V48[4:1],,,,8,,7,,6,,5,,
6/2>5[8:1],,,1,2,,8,,6<1[8:1],5,7,,62,,4,,
3h[8:1]/5h[8:1],,,2h[8:1]/7h[8:1],,,48,,2h[8:1]/6h[8:1],,,4h[8:1]/8h[8:1],,,2,6,
8b-4[8:1],,,,38,,2,,1-3[8:1]/4-8[8:1],,,,4pp2[4:2]/1,,,,
4/8b,,,,1,,1,,8-4[8:1],,7,,68,,,,
6-1[8:1]/1,,2-6[8:1],,6-3[8:1],,2,,8-4[8:1],,,,78,,6,,
35,,2,8,1-5[8:1],,2,,1/3<6[8:1]*>8[8:1],,,,3,,,,
1-5[8:1]/4,,,,16,,7,,8<5[8:1]/5>2[8:1],,,,8/5-1[8:1],,,,
2V48[4:1]/5,,,,24,,5,,6<1[8:1]*>3[8:1],,,,6,,,,
2-7[8:1]/6,,7>2[8:1],,2>5[8:1],,5qq6[8:2],,,,6,,7>2[8:1],,,,
4pp7[8:3]/7,,,,34,,2,,1w5[8:1],,,,1b,,,,
1b-5[8:1]/2,,,,61,,7,,8-6[8:1]/5-1[8:1],,,,5qq7[4:2]/8,,,,
5/1b,,,,8,,8,,1-5[8:1],,2,,31,,,,
3>8[8:1]/8,,7-3[8:1],,3<6[8:1],,7,,1w5[8:1],,,,1,,,,
7-4[8:1]/3,,6,8,7,,1,,2-5[8:1],1,3,1,2,,6,,
3/8b,,6,5,7,,46,,3,4,2,,6,5,7,,
1b/6,,3,4,2,,35,,4,6,2,,6,4,8,,
1b/5,,2,6,4,,37,,4,7,1,,5,2,8,,
2b/6b,,1,5,3,,48,,3,4,2,5,1,6,8,7,
1,,35,,4,,57,,8-4[8:1],,1,,28,,,,
5,,46,,35,,26,,7-4[8:1],,8-3[8:1],,7,,8,,
6,,45,,36,,27,,1-5[8:1],,8-4[8:1],,1,,8,,
2,,35,,24,,13,,2-5[8:1],,1-6[8:1],,2,,1,,
4,,28,,1,,78,,5-1[8:1],,4,,35,,,,
8,,17,,28,,37,,6-1[8:1],,5-2[8:1],,6,,5,,
7,,18,,27,,36,,2-5[8:1],,6-1[8:1],,2,,6,,
4,,17,,5,,28,,35,,27,,6,5,7,4,
8bqq4[4:2],,,,1,,,,2,,,,3,,,,
4qq1[4:2],,,,5,,,,6,,,,7,,,,
2pp6[4:2],,,,1,,,,8,,,,7,,,,
5pp1[4:2],,,,4,,,,3,,,,2,,,,
1pp5[4:2],,,,3,,,,5,,,,7,,,,
5pp8[4:2],,,,7,,,,1,,,,3,,,,
7qq3[4:2],,,,5,,,,3,,,,1,,,,
2b-5[8:1]/6b-1[8:1],,,,2b/6b,,,,3b/7b,,15,,2-6[4:8],7,1,8,
,,,,,,,,,,,,,,,,,,,,,,,,,,,,,,,,,,,,,,,
&inote_6=
