&title=ボルテッカー
&artist=DECO*27
&first=0.08
&des=Rayton
&lv_5=13+
&inote_5=(186)
{4},
{8}1,1,1xh[4:1],,7,7,7xh[4:1],,4,4,4xh[4:1],,6,6,6xh[4:1],,
{24}3x,2x,1x,8x,7x,6x,3x,2x,1x,8x,7x,6x,
{24}3x,2x,1x,8x,7x,6x,3x,2x,1x,8x,7x,6x,
{24}3x,2x,1x,8x,7x,6x,3x,2x,1x,8x,7x,6x,
{24}3x,2x,1x,8x,7x,6x,3x,2x,1x,8x,7x,6x,
{4}Cf,
{8},7h[8:1],,,1h[4:1],,8v5[8:1],8,,3h[4:1],,
{8}6,7,8,1pp1[4:1],,17,6,,6<8[8:1],,
{16}2x,3x,4x,,,,5>2[8:1],,5,,,,8-4[8:1],,,,8x,,
{8}2,,2,6,2,,72,,2,8<5[8:1],2,8,2,6,27,8,
{8}2,1,2,1<6[8:1],2,1,2,7,2/8pp8[8:3]*qq8[8:3],,,,,,,
{8}1b/7b,,8h[8:1],2h[8:1],7h[8:1],3h[8:1],6h[8:1],4h[8:1],5h[8:3],,
{8}8,1,2>5[8:1],,28,7,6,
{16}4h[8:1]/7h[8:1],,,3h[8:1]/8h[8:1],,,1/2>5[8:1],,,,
{16}8x,7x,6x,,8,,3h[8:1]/5h[8:1],,,2h[8:1]/6h[8:1],,,1-5[8:1]/7-3[8:1],,,,,,,,
{8}8xb/2xb,,1h[8:1],7h[8:1],2h[8:1],6h[8:1],3h[8:1],5h[8:1],4h[8:3],,
{8}1,8,7<4[8:1],,71,2,3,
{16}5h[8:1]/2h[8:1],,,6h[8:1]/1h[8:1],,,8/7<4[8:1],,,,
{16}1x,2x,3x,,1,,6h[8:1]/4h[8:1],,,7h[8:1]/3h[8:1],,,8-5[8:1]/2-5[8:1],,,,,,,,,,
{16}5x<1<5[8:7]/3x,,5x/4x,,,,2h[8:1],,,,3h[8:1],,,,4h[8:1],,,,3h[8:1],,,,
{16}26,,2-4[8:1]/6-4[8:1],,,,26,,,,
{16}3x>7>3[8:7]/5x,,3x/4x,,,,6h[8:1],,,,5h[8:1],,,,4h[8:1],,,,5h[8:1],,,,
{16}26,,2-8[8:1]/6-8[8:1],,,,26,,,,
{16}7x<3<7[8:7]/1x,,7x/8x,,,,2h[8:1],,,,1h[8:1],,,,8h[8:1]
,,,,1h[8:1],,,,
{16}26,,2-5[8:1]/6-1[8:1],,,,26,,,,
{16}4,8,4,8,3,7,3,7,2,6,2,6,1,5,1,5,8,,8xw4[8:1]/4x,,,,8xb,,,,,,,,8bh[32:1],,
{8}2-4[8:1],1-5[8:1],2,1,8-4[8:1],7-5[8:1],8,7,1,1-3-5[4:1],,5-1[8:1],,6,7,8,
{8}2-4[8:1],1-5[8:1],2,1,8-4[8:1],7-5[8:1],8,7,1,1-4[8:1]*-6[8:1],,1b,,3,2,1,
{8}7<4[8:1],8v3[8:1],7,8,1v6[8:1],2>5[8:1],1,2,8,
{8}8>4[4:1],,4<8[4:1],,8>4[4:1],,4<8[4:1],,8-2-4[4:1],,4-6-8[4:1],,1x,2x,3x,
{8}4>5[2:1],,,,,,,,
{8}7-4[8:1],1-5[8:1],7,1,8-4[8:1],2-5[8:1],8,2,7,7-5-3[4:1],,3-7[8:1],,8,1,2,
{8}2-5[8:1],8-4[8:1],2,8,1-5[8:1],7-4[8:1],1,7,8,8<5[8:1]*>3[8:1],,8x,,4x,6,2,
{8}7<4[8:1],1-5[8:1],7,1,8-4[8:1],2>5[8:1],8,2,1,1>5[4:1],,5<1[4:1],,
{8}1>5[4:1],,5<1[4:1],,1-3-5[4:1],,5-7-1[4:1],,2x,3x,4x,
{8}5,64,37,28,1/C,,
{8}1xs5[1:1]*s5[1:1],,8bh[32:1],,7,,6,,
{8}5xs1[1:1]*s1[1:1],,4,,3,,2,,
{8}1xs5[1:1]*s5[1:1],,8,,7bh[16:1],,6,,
{8}5xs1[1:1]*s1[1:1],,4,,3,,2,,
{8}1xs5[1:1]*s5[1:1],,8bh[16:1],,7,,6,,
{8}5xs1[4:3]*s1[4:3],,4,,3,,2,,2h[4:5],,
{8}8,8,7,7,6b,6,5,5,4,,4w8[8:1]/8,,4b/Cf,,,,
{4}1>8[2:7]/C,,,,B6,,,,B5,,,,B4,,,,
{4}1>8[2:7]/B7,,,,B2,,,,B3,,,,Ch[2:1],,,,
{4}2qq5[4:5],,6h[8:1],,7h[8:1],,8h[8:1],,
{4}1qq4[4:5],,5h[8:1],,6h[8:1],,7h[8:1],,
{4}8h[1:1],,,3,3h[1:1],,,1,1h[1:1],,2,3,4,5,6,
{8}4x/6x,4x/6x,5xs1[2:3]*s1[2:3],,,,,,,,,,,,,,,,
{8}2h[4:3],,,4,,,6,,8h[4:3],,,5,,,3,,27,,2,6,2,,72,,72,,2,8,2,,12,,21,,2,8,2,,
{8}7-3[8:1]/2-6[8:1],,72,,,,Ch[2:1]f,,,,B6/B7/B3/B2,,
{24}8xbh[8:1]/2xb,3xb,4xb,,,,7xbh[8:1]/3xb,4xb,5xb,,,,
{8}1xb/2xb,1xb-5[8:1]b/2xb-5[8:1]b,,1xb/2xb,,3xb/8xb,8xbv5[8:1]b/3xb,,2xb/8xb,2xb,,,
{24}2xbh[8:1]/8xb,7xb,6xb,,,,3xbh[8:1]/7xb,6xb,5xb,,,,
{8}1xb/7xb,1xbv4[8:1]b/7xbv4[8:1]b,,1xb/7xb,,2xb/6xb,2xbv5[8:1]b/6xb,,2xb/7xb,7xb,,,
{24}6xhb[8:1]/1xb,2xb,3xb,,,,5xbh[8:1]/8xb,1xb,2xb,,,,
{8}4xb/6xb,6xb-2[8:1]b/4xb-8[8:1]b,,4xb/6xb,,7xb/1xb,1xbv4[8:1]b/7xb,,6xb/1xb,6xb,,,
{24}3xbh[8:1]/1xb,8xb,7xb,,,,4xbh[8:1]/8xb,7xb,6xb,,,,3xb/5xb,,,
{24}8xbh[8:1]/2xb,3xb,4xb,,,,1xbh[8:1]/7xb,6xb,5xb,,,,8xbh[8:1]/3xb,4xb,5xb,
{8},1xb/7xb,3xb/5xb<4[2:1],,,,,,,,,,
{48}3h[4:4]/E7,B6,B5,,,,,,,,,,{4},{48}E1,B8,B7,,,,,,,,,,
{4},5pp5[2:1]*qq5[2:1],,,,{48}6h[4:4]/E3,B3,B4,,,,,,,,,,{4},
{48}E1,B1,B2,,,,,,,,,,{4},8-3>1[2:1]*-5<7[2:1],,,,
{8}1s5[2:1],,7,,7,,7,,8h[4:1],3,,82,,1-5[8:1]/7-5[8:1],,17,,
{8}2-4[8:1]/8-4[8:1],,28,,5,6,73,,15,,8-4[8:1]/2-6[8:1],28,,,,
{16},,,,7,5,6,,3,,3,,8,5,6,,3,,1w5[8:1]/5,,,,1b,,,,3,,2,,1,,
{8}8-6[8:1],1-5[8:1],8-4[8:1],1-3[8:1],8<1[2:1],1,8x,,8,8w4[8:1],,8,,6,7,8,
{8}2-4[8:1],8-4[8:1],2-6[8:1],8-6[8:1],2,8,2,1,48,8-3[8:1]/4-7[8:1],,48,,
{8}8<5[8:1]/4>1[8:1],,4b/8b,,8>3[8:1]/4<7[8:1],,4b/8b,,2h[4:1],6,8,4pp4[4:1]*qq4[4:1],,,,,
{8}1,2,3,4/6-2[8:1],4,4b/6,4,1-5[8:1]/3b,3,1/2b,2,3b/6,4-1[8:1],5x,47,,
{8}8,7,6,5/8-4[8:1],5,5b/8,5,6b/2>5[8:1],6,7b/2,7,63,5x-8[8:1],4,25,3,
{8}4>1[8:1],5,6,5x-7[8:1],8x-4[8:1],5,8,
{8}1x-5[8:1],4x-2[8:1],1,4,7,7-4[8:1]/3-8[8:1],,37,,
{8}2v4[8:1]/6v8[8:1],,2b/6b,,7v5[8:1]/3v1[8:1],,3b/7b,,
{8}26,37,48,
{16}1,5,1,5,8,4,8,4,
{32}8x,7,6,5,4,3,2,1,8,7,6,5,4,3,2,1,8x/Cf,,,,,,,,
{8}1xs5[2:1]b,,6,,7,,8xz4[2:1]b,,3,,2,,1h[1:1],,
{8}8,8,7,7,6,6,5,5,4-7[8:1]*-1[8:1],,,,A4f/D4/D5,,,,Ch[16:1],,,,
{8}E2,,E7,,E4,,,,B2,B6,B3,B7,B4,B8,Ch[4:3],
