&title=Killing Rhythm
&artist=DJ Myosuke
&first=0
&des=CODE:Soxps
&lv_5=14+
&inote_5=(200)
{1},,
{8}3h[8:2]/4h[8:1]0,,,5h[4:1]/4h[8:1],,,2h[4:1]/4,,
{8}5,6,47,,5-1[8:1]/6-8[32:3],,56,,
{8}3h[8:2]/4h[8:1],,,5h[4:1]/4h[8:1],,,2h[4:1]/4,,
{16}5,4,6,,3,4,2,,1-3[32:3]/8-4[8:1],,7,,18,,,,
{8}7h[8:2]/5h[8:1],,,4h[4:1]/6h[8:1],,,5/7h[4:1],,
{8}4,3,2-4[32:3]/5,,2/5-1[8:1],,25,,
{8}7h[8:2]/5h[8:1],,,4h[4:1]/6h[8:1],,,5/7h[4:1],,
{16}4,5,3,,6,5,7,,36,,36,,1,8,1,8,
{8}2b/7b,,3h[8:1]/4,5,3h[8:1]/6,,3h[8:1],,
{8}3h[8:1]/4,5,6-8[8:1]/3h[8:1],,3-5[8:1]/6,,3,,
{8}7h[8:1],,7h[8:1]/5,4,3/7h[8:1],,7h[8:1],,
{8}7h[8:1]/5,4,3/7h[8:1],,25,,{16}3,4,3,4,
{8}2b,2h[8:1],4,4h[8:1],1,1h[8:1],5,5,
{8}3b/6h[8:1],3,4/7h[8:1],4,6b/1h[8:1],6,7/2h[8:1],7,
{16}3b,8,3,8,4b,5,4,5,1b,6,1,6,{32}2b,3,4,5,6,7,8,1,
{8}2b/6b,,4,3h[4:1]/5,,6,57,8,
{8}6b-4[8:1]/1h[8:1],,1h[8:1],,3-7[8:1]/1h[8:1],,1h[8:1],,
{8}8-4[8:1]/1h[8:1],,1,2,{16}3,,,2h[16:1]/6h[16:1],,,,,
{16}7b-1[8:1]/2h[8:1],,,,7-5[8:1]/3h[8:1],,,,2h[8:1]/7,,,,3,4,3,4,
{8}2h[4:1]/5,,5,4/6h[4:1],,3,24,1,
{16}3/8b,,,,6h[8:1]/5,,4,,3h[4:1]/8,,,,7,5,7,5,
{16}6-4[8:1],,,,36,,2,,1,,,2h[16:1]/6h[16:1],,,,,
{8}3h[8:1]/4,5,6/4,,7h[8:1]/5,4,36,,
{16}1h[8:1]/2h[8:1],,,,12,,3h[4:1]/8,,7,,6,,35,,2,,
{16}1b-5[8:1]/6,,6,,1/7-3[8:1],,,,78,,,,2,4,2,4,
{16}3b-1[8:1],,,,35,,6,,7-3[8:1],,,8,7,,,,
{8}25,3,46,7,3/8h[4:1],,{16}2,1,2,1,
{16}3b/8h[4:1],,,,4,,6h[4:1]/5,,,,4,,35,,2,,
{16}1b/7,,,6,6h[8:1],,5,5h[8:1],,4,4h[8:1],,3,,2,,
{16}2/8b,,,3,3h[8:1],,4,4h[8:1],,5,5h[8:1],,6,,7,,
{16}1b/7,,6,,8b/2,,3,,56,,47,,36,,25,,
{16}1b/4h[8:1],,2,,35,,6,5,7h[8:1],,8,,2-6[8:1]/5,,3,,
{1}2b>1[8:28]/8<1[8:28],,,,
{8}3,3h[8:1],4,5,5h[8:1],4,3,3h[8:1],
{8}6,6h[8:1],5,4,4h[8:1],5,6,6h[8:1],
{8}3,4,25,6,5,47,7h[4:1],,
{16}5,4,3,4,5,6,3,4,5,6,5,4,1b,,,,
{16}2b/5,,3,4,3,,75,,6,4,6,,3/5h[8:1],,2,,
{16}7b/4,,6,5,6,,24,,3,5,3h[8:1],,6,4,6,5,
{16}7b,,2,1,2,,38,,7,8,7,,4h[8:1]/6,,5,,
{16}2b/4,,2,1,3,,46,,7,8,7h[8:1],,1,8,1,8,
{16}2b/7b,,1,4,2,5,3,6,6,5,7,4,6h[8:1],,5,,
{16}7b/3b,,8,5,7,4,6,3,3,4,2,5,3h[8:1],,4,,
{16}2h[4:1]/5h[8:1],,,,,,3h[8:1]/4h[4:1],,,,,,35,,6,5,
{16}7h[4:1],,5,,4,,6h[4:1],,4,,3h[8:1],,7,,,,
{16}2b-4[8:1],,1,,8,,,,2-5[8:1],,1,,8,,,,
{16}2-6[8:1],,1,,8,,,,7h[8:1]/5h[8:1],,,4h[8:1]/6h[8:1],,,35,,
{16}2b-4[8:1]/1,,8,,27,,,,2-5[8:1]/1,,8,,27,,,,
{16}2-6[8:1]/1,,8,,27,,,,8h[8:1]/5h[8:1],,,7h[8:1]/4h[8:1],,,36,,
{16}2b/4,,2,,35,,3,,64,,6,,75,,7,,
{16}4b/8,,48,,37,,37,,26,,26,,15,,15,,
{16}2b,4,2,4,3b,6,3,6,5b,7,5,7,1b,8,1h[8:7],8h[16:13],
{4},,,{24},27,36,45,,,
{16}3b/6b,,,,2,,2,,6b,5,6,4,5,4,6b,5,
{16}7,4,5,3,6b,5,7,5,8b,5,7,4,6h[8:1],,5,,
{16}2b/6b,,,,7,,7,,3b,4,3,5,4,5,3b,4,
{16}2,5,4,6,3b,4,2,4,1b,4,2,5,3h[8:1],,4,,
{16}7h[4:1]/3b,,,,2,,2,,7b,8,6,5,6,4,7b,8,
{16}6,4,5,3,7b,8,6,1,5b,3,4,2,8h[8:1],,1,,
{16}2h[4:1]/6b,,,,7,,7,,2b,1,3,4,3,5,2b,1,
{16}3,5,4,6,2b,1,3,8,2b,1,2,1,2-6[8:1],1,2,1,
{1}2bw6[4:14],,,,
{1}4h[4:11],8h[4:7],,
{8},,3s7[8:3],5-1[8:2],35,,,,
{8}3h[4:1]/4h[8:1],,,5h[4:1],4h[8:1],,2h[4:1]/4,,
{8}5,6,4h[8:1]/7h[8:1],,5-1[8:1]/8-6[32:3],,58,,
{8}3h[4:1]/4h[8:1],,,5h[4:1],4h[8:1],,2h[4:1]/4,,
{16}6,,46,,7,5,7,5,7h[4:1],,,,1,8,1,8,
{16}2b/7b,,,,34,,3,,45,,4,,56,,5,,
{16}4b/7b,,6,,25,,3,,4b/6b,,46,,57,,57,,4b,8,4,8,3,7,2,6,1b,5,1,5,{32}1b,2,3,4,5,6,7,8,
{4}1b/5bw1[8:4],,,,
{16}2h[8:5]/8b,,,,,,,,,,4,5,3b/6b,,,,
{16}3b,4,2-6[8:1],,7,7,2,,7-3[8:1],,8-4[8:1],1,7,,8,,
{16}6,6,5-1[8:1],,7,,5,,8,8,,21,2,,37,,
{16}6b,5,7-3[8:1],,1,1,7,,2-6[8:1],,1-5[8:1],8,2>8[16:8]*V48[8:4],,,,
{16},,,,,,,,,,1,,2-4[8:1]/6-8[8:1],,15,,
{16},,,,5b/6b,,56,,47,,6,5,7-3[8:1],,8,,
{16}1/7b,,,,24,,1,,25,,34,3,,57,7,,
{16}2-5[8:1],,1,,2,,6-3[8:1],,8,,6,,1-5[8:1],,5,,
{16}1b,,,,{24}8,7,6,1,2,3,4v1[8:1]/5-8[8:1],,,,,,4b/5b,,,,,,
{32}7h[8:1],,,,1,2,3,4,5h[8:1]/8,,,,,4,3,2,1h[8:1]/6,,,,,2,3,4,58,,,,8,,,,
{32}2h[8:1],,,,8,7,6,5,4h[8:1]/1,,,,,5,6,7,8h[8:1]/2,,,,,7,6,5,4/1,,,,1,,,,
{32}7h[8:1],,,,1,2,3,4,5/8h[8:1],,,,,7,6,5,4/1h[8:1],,,,,2,3,4,5/8,,,,8,,,,
{16}7b-3[8:1],,5,,7,,2,2,1-5[8:1],,28,,1b,,,,
{16}7b,8,6,4b,5,3,6b,5,7,2b,1,3,6h[8:1],,5,,
{16}3b,4,2,8b,1,7,2b,1,3,6b,5,7,3,,24,,1b,8,1,8,1,8,1,8,1h[32:1],8h[32:1],1h[32:1],8h[32:1],{32}1b,2,3,4,5,6,7,8,
{4}1b/5bw1[8:3],,,3b/7b,
{8}3h[4:1],4,5,6h[4:1],5,4,3h[8:1]/5h[8:1],,
{8}24,3,46,7,1v4[8:1]/8-5[8:1],,18,,
{8}2h[4:1],3,4,5h[4:1],4,3,2h[8:1]/6h[8:1],,
{8}57,8,46,7,1v4[8:1]/8-5[8:1],,18,,
{8}2h[4:1]/6h[8:1],,,3h[4:1]/4h[8:1],,,7h[4:1]/5,,
{8}5,4,3h[8:1]/6h[8:1],,2-5[8:1]/7-4[8:1],,,,
{8}3h[8:1]/6h[4:1],,,7h[4:1]/4h[8:1],,,2h[4:1]/5,,
{16}5,6,7,4,3,2,6,5,4,3,4,5,6h[16:1],,6h[16:1],,E
