&title=ヒトカタユリコイ
&artist=bbben feat. POPY
&first=0.04
&des=Aza feat. bbben
&lv_5=13
&inote_5=(130)
{1},
{4}A7,4,E7,4,E6,4,A5,4,E3,6,E4,6,D5,E6,E4,C,A2,5,E3,5,E4,5,A4,5,E7,3,E6,3,{16}2x/4x,,,5x/7x,,,{8}1x/3x,8x/6x,1x/8x,{16}2x,2x,2x,2x,
{8}7-2[8:1],8,3-6[8:1],4,{16}7,7,,8,,3,3,3,{8}7-2[8:1],8,3-6[8:1],4,{16}7,7,,8,{8}1x/7x,3x/5x,2x-7[8:1]/6x,1,6-3[8:1],5,{16}2,2,,1,,6,6,6,{8}2-7[8:1],1,6-3[8:1],5,{16}2,2,,1,8x,8x,8x,8x,
{8}1-4[8:1],2,5-8[8:1],6,{16}1,1,,2,,5,5,5,{8}1-4[8:1],2,5-8[8:1],6,{16}1,1,,2,{8}1x/3x,4x/5x,{8}6x/8-5[8:1],7,4-1[8:1],3,{16}8,8,,7,,4,4,4,{8}8-5[8:1],7,4-1[8:1],3,{16}8b,7b,6b,5b,{4},
3>5[2:1]/4,4,4,4,4/5<3[2:1],4,4,4,{32}4/A8,E8,E7,A6,{8},{4}4,{32}4/A1,B1,C,B5,{8},{4}4,3x-7[8:1],5x-1[8:1],7-3[8:1],1x-5[8:1],6<4[2:1],E3/B3,5,E3/B3,4>6[2:1],E3/B3,5,E3/B3,{32}1h[4:1]/E7,B6,B5,B4,{8},7x,,{32}8h[4:1]/E3,B3,B4,B5,{8},2x,,
{4}1x-5[8:1],7x-3[8:1],5x-1[8:1],3x-7[8:1],
{16}2>6>2[4:3],,,1,,,8,,8,,,7,,,7,,7<3<7[4:3],,,8,,,1,,1,,,2,,,2,,3>7>3[4:3],,,4,,,5,,5,,,6,,,6,,6<2<6[4:3],,,5,,,4,,4,,,3,,,3,,
{16}2h[16:3],,3,3h[16:3],,,4,4,7h[16:3],,6,6h[16:3],,,5,5,1h[16:3],,2,2h[16:3],,,3,3,8h[16:3],,7,7h[16:3],,,6,6,{1}5<5[2:1],
{16}B6f/2x,,,B3f/7x,,,{8}Cf/1hx[4:1],,8x,{16}8x,8x,8x,8x,2-6[8:1],,,1,2,,7,,6-2[8:1],,,5,6,,{8}3,2/4,5/7,1/3,6/8,{16}1q6[8:1]/5q2[8:1],1/5,{8},,,{16}7-3[8:1],,,8,7,,2,,3-7[8:1],,,4,3,,6,,{4}7x-3[8:1],8x-4[8:1],1x-5[8:1],8x,
{16}3-7[8:1],,,2,3,,8,,7-3[8:1],,,6,7,,{8}4,3/5,6/8,2/4,1/7,{16}4p7[8:1]/8p3[8:1],4/8,,,{4},{16}6-2[8:1],,,7,6,,1,,2-6[8:1],,,3,2,,{8}5,4/7,4/7,2-5[8:1]/5,,{16}6-1[8:1],,,6,,,{8}4,
{4}3s7[2:1],C,,C,5s1[2:1],C,,C,7s3[2:1],C,,C,1>4[8:1],1-5[8:1],1<6[8:1],8,{16}7-4[8:1],,,6,7,,1,,3-8[8:1],,,2,3,,{8}6,1/7,3/8,1/5,3/7,{16}2q7[8:1]/6q3[8:1],2/6,,,{4},{16}1-5[8:1]/2-5[8:1],,,1/2,1/2,,,,7-4[8:1]/8-4[8:1],,,7/8,{4}7/8,{16}1/2,,3/4,,{16}5-2[8:1]/6,,,,5/6-1[8:1],,,6,,,3,,
{8}2>5[8:1]/4,3,2/6-1[8:1],7,{16}2>5[8:1],2,,3,,8,8,7,2>5[8:1],,3,,2/6-1[8:1],,7,,2,2,,3,{8}2x/4x,7x/8x,1x/6x<1[8:1],7,2-5[8:1]/6,3,{16}6<1[8:1],6,,7,,2,2,3,{8}6<1[8:1],7,2-5[8:1]/6,3,{16}6,6,,7,1x,1x,1x,1x,
{8}7<4[8:1],6,7/3-8[8:1],2,{16}7<4[8:1],7,,6,,1,1,2,7<4[8:1],,6,,7/3-8[8:1],,2,,7,7,,6,{8}7x/5x,2x/1x,8x/3x>8[8:1],2,7-4[8:1]/3,6,{16}3>8[8:1],3,,2,,7,7,6,{8}3>8[8:1],2,7-4[8:1]/3,6,{16}3b,2b,1b,8b,
