&title=霧の書斎
&artist=igel
&first=1.67
&des=ヤミヨル
&wholebpm=73.34
&demoseek=83.4
&demo_len=16
&des_1=音合わせ
&des_5=ヤミヨル
&lv_1=音
&lv_5=14
&inote_1=(73.33333){4}
1b,1,1,1,1b,1,1,1,1b,1,1,1,1b,1,1,1,
1b,1,1,1,1b,1,1,1,1b,1,1,1,1b,1,1,1,
1b,1,1,1,1b,1,1,1,1b,1,1,1,1b,1,1,1,
1b,1,1,1,1b,1,1,1,1b,1,1,1,1b,1,1,1,,,,,E
&inote_5=(73.333){72}
2h[3:1]/6,5,4,,,,,,,,,,,,,,,,,,,,,,1,,,,,,8,,,,,,
7h[3:1]/3,4,5,,,,,,,,,,,,,,,,,,,,,,8,,,,,,1,,,,,,
{24}
2,,38,,47,,6-1[16:1],,34,,25,,
6b/2-5[16:1],3,4,8,,,2/6,7,8,
4-8[16:1],,,2v7[16:1]/6v1[16:1],,,4/8v3[16:1]*v5[16:1],,,2/6,,,8,,,
7^4[8:1]/1^4[8:1],,5^4v1[8:1]/3^4v7[8:1],,8,,71,,,,,,
8,7,6>6-4-2[8:5],51,62,7h[24:19]/3,,,,,,,,,,,,,,,,,,,,,
1,,1,,2qq5[4:1]/8,,7,,6,,5V38[16:3],,,,,,6,,,,
4,,4V68[32:5],,,,,,1,,,,{36}2,3,4,{24}5/8^5[12:1],,7,,7,,8/1^4[12:1],,2,,2,,
18,,7,,7,,68,,5,,4,,3/1<3[6:1],,28,,17,,6h[6:1],,,,,,
6^1[16:1],,,2^5[16:1],,,6x-2[16:1],,,2x-7[16:1],,,6x-3[16:1],,,2x,,,6x,,2,,1,,
8b,,7,,7,,6/5pp2[4:1],,4,,3,,2<5[16:3],,,,,,4,,,,
8,,8>4[32:5],,,,,,5,,,,{36}6,7,8,{24}1-3[16:1],,8-4[16:1]/4,,7-5[16:1]/5,,1,,8,,7,,
8x,,1,,1,,2h[6:1]/5,,6,,7,,3/8<2[6:1],,2/7,,1/6,,85,,,,8,,
8^5[16:1],,,4^1[16:1],,,8xV27[32:3],,,4xV63[32:3],,,8xw4[16:1],,,4x,,,8x,,,6x/2x,,,
1/3bv5-3-1-7[4:1],4,5,6b/8,,,3b/6h[8:3],,,,,,,,,
8h[1:0],1h[1:0],2h[1:0],{36}3/8x,1,2,3/1x,2,3,
{24}4b-8[24:1]*-8[24:1]/7h[12:1],,,4b/2h[12:1],,,4b/6h[12:1],,,
1h[1:0],2h[1:0],3h[1:0],4h[1:0]/8h[1:0],,6h[1:0],5h[1:0]/1h[1:0],,2h[1:0]/8h[1:0],{36}3/7x,6,5,4/6x,5,4,3/5x,4,3,
{24}2h[12:1]/4b,,,7h[12:1]/5b,,,1b>5-7-4-8-3[5:2]/8h[24:8],,,,,,,,,,,,,,,,
6b,,,1b/2b,,,3b/5b,,,8b/7b,,,16,5,4,{96}3v6[16:1],8,,,{24}4,5,1h[8:1]/6,,,3,,,
3,4,3,5,4,5,2,2,1,1,3,4,4,5,4,4,2,1,8,7,6,5,6,4,5,4,7,7,8,8,6,5,5,4,5,5,7,8,1,2,
3/4-8[16:1],,,,2,,14,,,,6-2[16:1],,18,,35,,26,,,,4v7[16:1]/8v3[16:1],,,,15,,48
,,,,,,2h[12:1],,3h[12:1],,4h[12:1],,5h[12:1],,6h[72:35],,,,,,5h[72:17],,,,,,{72}5x/6x,4x/7x,3x/8x,1x-7-3-5[5:1]/2x-4-8-6[5:1],,,,,,,,,,,,,,,,,,,,,,,,,,,,,,,,,,,,,,,
{384}8xh[384:25],4xh[48:3],,,,,,,{48},,,
{384}7xh[384:25],3xh[48:3],,,,,,,{48},,,
{384}6xh[384:25],2xh[48:3],,,,,,,{48},,,
{384}5xh[384:25],1xh[48:3],,,,,,,{48},,,
{384}4xh[384:25],8xh[48:3],,,,,,,{48},{24},
1x-7-5-8[32:5],,2,,2,,1b/3,,4,,2,,1-4-2-8[32:5],,8,,7,,6/1b,,5,,5,,6-2-8-5[32:5],,7,,18,,6b/2,,3>6[32:3],,4,,4,,5/3bv8[32:1],,,,8,3b,7,6,
5-1^4-8[32:5],,36,,47,,5b/8,,7,,6,,3V16[32:3],4,3,2,3,4,3b,,5x,5x,4,3,7-3-1-5[32:5],6,2,1,5h[12:1],,7b,,6^3[16:1],,7,,8h[4:1]/1<2[8:1],,6b,,,,1b,,,,
5-1[16:1],,6,,6,,4/5,,3,,2h[12:1],,4-8[16:1],3,5-1[16:1],4,6-2[16:1],5,7x/4x,,5,,6,,
8^5[16:1],,7,,7,,1^4[16:1]/8,,2,,2p7[32:5],,1,,,2,,,,,
5x,4x,3x,2x,1xV35[6:1],,,,5xv3[8:1],,5x,,,,,,8xV64[6:1]*V64[6:1],,,,4xv6[8:1]*v6[8:1],,4x,,,,,,
3x,,2x,,1x,,8x/7x,,1x/6xh[8:1],,,4x,{48}4x,5x,3x,4x,{24}2x,,1xh[72:59],,{4}8xh[72:71],,,
{72}2,3,4h[24:5],,,,,,,,,,,,,,,,37,26,1h[72:16]/5h[72:16],,,,,,,,,,,,,,,,
{24},,26,,48,,{36}37,2-7[32:1]/6-3[32:1],15,{24}48,,15,,2bV47[8:1]/6bV83[8:1],,,,,,,,,,
1x/5x,,1x/5xq8[64:11]*p1[16:1],,,,,,5,,,,{36}2,3,4,{24}5/6-1[16:1],,3-8[16:1]/4,,1s5[16:1]/8z4[16:1],,,,,,,,,,3,,3,,24,,1,,8,,7>6[8:1]/6,,54,,32,,1h[6:1],,,,8,,
8q5[64:5],,,4q1[64:5],,,8x^5[16:1],,,4x^1[16:1],,,8xq1[8:1],,,4x,,,8x,,3,,
3,3,8h[24:5],2,,2,,2,7h[24:5],1,,1,,1h[8:1],,,4,3,5,4,6,5,7,5,7,7,1,5,3,1,5,7,1,5,3,7,5,1h[8:1],,,
{36}6,5,4,{24}37,8,1,25,34,3/4pp6[32:3],,,74,63,52,4qq1[32:5]/1,,,1,25,36,47,,8h[8:1],,,{36}2,3,4,{24}5,7,8,5,3,3,6,6,1h[24:5],7,,7,,7,2h[24:5],8,,8,,8h[24:5],,,,,6,5,47,,,,
6,6,5,6,7,6-1-5[32:3],8,6,1,,2,2,,3,3,4,3-6-1-5<4[32:11],2,3,1,,,8h[32:11],,,,,,,,,,
1v3[24:1]/5v7[24:1],15,,37,,15,15,,2x/6x,,3-7[24:1]/5-1[24:1],35,,48,,35,35,,8b,,
1-5[24:1]/7qq8[64:7],17,,56,,17,17,,2x,,1-5[24:1]/2qq5[32:5],12,,57,,12,12,,7b,,
1b-6<2-5<5s1[4:7],,,,{72}6,5,{2}4h[36:65],,,,,E
,
