&title=からくり卍ばーすと
&artist=ひとしずく×やま△
&first=0.04
&des=ME1T からくり卍ばーすと ひとしずく×やま△
&des_5=ME1T
&lv_5=14.0
&inote_1=(178){4},,,,5,
6,{8}7,{16}2,1,{4}3/8,
{1}1h[2:3]/7h[2:3],
{4},,,8q2[16:9]/4q6[16:9],
{8},,,,,,,3/2-6[16:3],
,2/1-5[8:1],,1/8-4[8:1],,8b,,,{1}8h[2:3]/2h[2:3],
{4},,,2pp5[4:3]/6pp1[4:3],
{8},,,,,,,6/7-3[16:3],
,7/8-4[8:1],,8/1-5[8:1],,1b,,,{4}8/1v6[8:1],
{8}1,7,,3/5-8[8:1],,5,
,1-4[8:1],4-1[8:1],1-6[8:1],{2}6-3[8:1]*-1[8:1],
{4}1/8v3[8:1],{8}8,2,,6/4-1[8:1],,4,
,8-5[8:1],5-8[8:1],8-3[8:1],{2}3-6[8:1]*-8[8:1],
{4}5/4v7[8:1],{8}4,6,,2/8-5[8:1],,8,
,6/4,2,3/1,8,7/6,{4}5/4,
1/8v3[8:1],{8}8,2,,6/4-1[8:1],,4,
7,7/8,1/2,4/3,6/5,7/8,{16}4,5,4,5,
{4}6/3-8[8:1],3,{8}5/3-8[8:1],4,3,4,
,4,{4}5/3-8[8:1],{8}3,4,3,4,
4b/6b,6/4,,5b/3b,{4}5/3,{8}5b,1/7,
,4b,{4}8/2,{16}2,4,3,5,4,6,5,7,
{4}3/6-1[8:1],6,{8}4/6-1[8:1],5,6,5,
,5,4/6-1[8:1],5,6,5,4/6-1[8:1],5,
{4}6-2[8:1]/3-5[8:1],6/3-8[8:1],3,7-2[8:1]/1-6[8:1],
{2}7-4[8:1]/1-4[8:1],{8}8/1,6/5,5/4,4/3,
1/2,3,4/5,6,8/7,1,3/1,2,
5/4,6,8/6,7,5/4,2/1,7/8,5/4,
3/1,2,1,5/7,6,7,2/8,1,
8,7/1,8,1,{16}6/3,5,4,3,2,1,8,7,
{8}6/2-5[8:1],2,2/7-4[8:1],7,7/1-5[8:1],2,1/7<4[8:1],6,
7/1-4[8:1],3,5/1-6[8:1],7,1/5,3,2/8,7/1,
{2}4-1[8:1]/8-5[8:1],7>2[8:1]/3p6[8:1],
{32}5b/1b,8/4,3/7,6/2,{8}1h[8:3]/5h[4:1],{16},,,,,,8/2,3/7,{4}4/6,
{2}7w3[8:1],{4}1-6[8:1]*-4[8:1],1,
8-5[4:3],1,2-7[8:1],2,
4>8[4:1],8p4[8:1],4p8[4:1],8<4[4:1],
4-1[8:5],8,7-2[8:1],7,
{8}7<4[8:1],8,1,2<7[8:1],3,4,5>2[8:1],6,
7,8<5[8:1],1,2,3>8[8:1],4,{4}5,
2-5[8:1]/6-1[8:1],6>3[8:1]/2<7[8:1],6q2[8:1]/2q6[8:1],6>3[8:1]/2<7[8:1],
,6/2q6[8:1],2/8-4[8:1],8/3,
{8}3/7-5[8:1],3,3/7,3,3/8-5[8:1],3,3/8,3,
3/8-4[8:1],3,3/8-6[8:1],3,3/8-4[8:1],3,3/8-2[8:1],3,
3/8-4[8:1],3,3/8-6[8:1],3,3/8-4[8:1],3,3/8,3,
{4}3b,3/7p3[8:1],7/1-5[8:1],1/6,
{16}2,1,3,8,4,7,5,6,3,4,2,5,1,6,8,7,
{1}6/1h[2:5],
{4},,,,6,
6,{32}6b,7,8,1,2,3,4,5,{4}6>2[4:1]/2v5[8:1],
2<7[4:1],7qq4[8:9],,1-7[8:1],
1,1-3[8:1],1,{8}2-5[8:1],1,
2,7-3[8:1],8,7,2>5[8:1],1,2,7p3[8:1],
7,8p4[8:1],8,1q5[8:1],1,2q6[8:1],{4}2,
{8}7<4[8:1],8,1,2>5[8:1],1,8,7-4[8:1],8,
1,2-5[8:1],1,8,{4}7s3[8:1]*-3[8:1],7b,
{8}4/5,6,7/8,1,2/4,3,6/2-7[8:1],6-1[8:1],
2-5[8:1],6-3[8:1],2-7[8:1],6-1[8:1],2-5[8:1],6-3[8:1],2,6,
{4}1-5[8:1],1/7-4[8:1],7/2q6[8:1],2/8,
{8}7/1-5[8:1],1,1/7-4[8:1],7,7/2q6[8:1],2,{4}2/8,
8-6[8:1]/1-5[8:1],8/1,8-4[8:1]/1-3[8:1],8/1,
8-6[8:1]*-2[8:1],8<4[8:1],8>4[8:1],8,
{8}7-4[8:1],8,1,2-7[8:1],3,4,5-2[8:1],6,
7,8,{4}7-5[8:1]/1-5[8:1],7-3[8:1]/1-3[8:1],7/1,
1-5[8:1],{8}1,7-4[8:1],,7,,5/3,
,7/1,4/5,2/8,{16}2,3,4,5,6,7,8,1,
{1}2s6[4:27]/8s4[4:27],
,,,,,,{4},{16},,,1b,
,,,,,,,4,
,5,,4,,4,,3,,4,,1,,1,,6,
,5,,8,,8,,4,,5,,6/3,,,,1h[8:3],
,8,,7,,6h[8:3],,5
,,4,,3h[8:3],,2,,1,
,8h[8:3],,1,,2,,3h[4:1],,4,,5,,,,8h[8:3],
,1,,2,,3h[8:3],,4,,5,,6h[8:3],,7,,8,
,1h[8:3],,8,,7,,6h[8:3],,5,,4,,,,1-5[8:1],
,1,,7<4[8:1],,7,,2-6[8:1],,2,,8-5[8:1],,8,,1-4[8:1],
,1,,7-3[8:1],,7,,2>5[8:1],,2,,8-4[8:13],,8,{1},,{16},4bw8[8:7],
{1},{4},,{16},2,
1,3h[8:7]/8h[8:7],,,,,,,,,,,,,,,,1h[8:5]/6h[8:5],
,,,,,,,,,,,,,,,1/2,
,3,,4/5,
,6,,8/7,,2-5[8:1],,1,,2,,7,,8,,7-2[8:1],
,,,7/3-6[8:1],,,,3/5-1[8:1],,,,5,{32},,,,,,7/3,6,
{16}5,1,,8,{32},,2/6,3,{16}4,8,,1,,8,{32}7/1,6,{16}5,,4/3,
,1,{32}2/8,3,{16}4,,6/5,,7z3[8:1]*-3[8:1],,,,7b,,,,4/5,
,6,,7/8,,1,,2/4,,3,,8/2,,5/4,,7/1b,
,5/3b,,2/1b,,6/4b,,8b/7,,2b/4,,1b/7,,,,6/1-5[8:1],
,,,1/7-4[8:1],,,,7/2q6[8:1],,,,2/8,,,,7/1-5[8:1],
,1,,1/7-4[8:1],,7,,7/2q6[8:1],,2,,2/8,,,,8-6[8:1]/1-5[8:1],
,,,8/1,,,,8-4[8:1]/1-3[8:1],,,,8/1,,,,8b-6[8:1]/1b-6[8:1],
,,,8b-3[8:1]/1b-3[8:1],,,,1b-5[8:1]*w5[8:1],,,,1b,,,,7-4[8:1],
,8,,1,,2-7[8:1],,3,,4,,5-2[8:1],,6,,7,
,8,,1/7,{32},,,,,,7/1,6,5,4,,,,,2/8,3,4,5,,,,,{16}1-5[8:1],
,,,1,,7-4[8:1],,,,7,,,,5/3,,,,7/1,
,4/5,,2/8,,5/4,,,,4/6,,,,6/2-4[8:1],
,6,,6/2,,6,,6/1-5[8:1],,6,,6/1,,6,,6/2-4[8:1],
,6,,6/2,,6,,6/1pp4[8:5],,6,,6/1,,6,,6,
,6,,6,,6,,6/5,,7,,8/1,,2,,3-7[8:1],
,3,,4-8[8:1],,4,,5-1[8:1],,5,,6-2[8:1],,6,,,,,,3,
4,2h[8:1],,6,5,7h[8:1],,3,4,1h[8:1],,6,
5,8h[8:1],,2,1,3h[8:1],,7,8,6h[8:1],,,,,,3,
4,3,8,6,5,7,1,3,4,2,8,6,5,6,1,4,
3,5,4,6,3,4,2,6,5,7,2,1,3,7,8,6,
,4,,8-6[8:1],,4,,8-2[8:1],,4,,8-5[8:1],,4,,8-3[8:1],
,4,,8-6[8:1],,4,,8-2[8:1],,4,,8-5[8:1],,4,,8-3[8:1],
,4-7[8:1],,8-5[8:1],,4-1[8:1],,8,,,,,,,,3,
4,2,6,5,7,3,4,1,6,5,8,3,6,4,5,4-8[8:1],
,4,,6-1[8:1],,6,,3-7[8:1],,3,,5-1[8:1],,5,,,,5,
,6/2,,4/8,,2-5[8:1]/6-1[8:1],,,,6b/2b,,,,8-4[8:1],
,,,8,,2>5[8:1],,,,2,,,,8/1,,,,5/4,
,4/7,,5/2,,3,4,2,5,3,4,2,5,7z3[8:29]/1z5[8:29],
E
&inote_5=(178){4},,,,5,
6,{8}7,{16}2,1,{4}3/8,
{1}1h[2:3]/7h[2:3],
{4},,,8q2[16:9]/4q6[16:9],
{8},,,,,,,3/2-6[16:3],
,2/1-5[8:1],,1/8-4[8:1],,8b,,,{1}8h[2:3]/2h[2:3],
{4},,,2pp5[4:3]/6pp1[4:3],
{8},,,,,,,6/7-3[16:3],
,7/8-4[8:1],,8/1-5[8:1],,1b,,,{4}8/1v6[8:1],
{8}1,7,,3/5-8[8:1],,5,
,1-4[8:1],4-1[8:1],1-6[8:1],{2}6-3[8:1]*-1[8:1],
{4}1/8v3[8:1],{8}8,2,,6/4-1[8:1],,4,
,8-5[8:1],5-8[8:1],8-3[8:1],{2}3-6[8:1]*-8[8:1],
{4}5/4v7[8:1],{8}4,6,,2/8-5[8:1],,8,
,6/4,2,3/1,8,7/6,{4}5/4,
1/8v3[8:1],{8}8,2,,6/4-1[8:1],,4,
7,7/8,1/2,4/3,6/5,7/8,{16}4,5,4,5,
{4}6/3-8[8:1],3,{8}5/3-8[8:1],4,3,4,
,4,{4}5/3-8[8:1],{8}3,4,3,4,
4b/6b,6/4,,5b/3b,{4}5/3,{8}5b,1/7,
,4b,{4}8/2,{16}2,4,3,5,4,6,5,7,
{4}3/6-1[8:1],6,{8}4/6-1[8:1],5,6,5,
,5,4/6-1[8:1],5,6,5,4/6-1[8:1],5,
{4}6-2[8:1]/3-5[8:1],6/3-8[8:1],3,7-2[8:1]/1-6[8:1],
{2}7-4[8:1]/1-4[8:1],{8}8/1,6/5,5/4,4/3,
1/2,3,4/5,6,8/7,1,3/1,2,
5/4,6,8/6,7,5/4,2/1,7/8,5/4,
3/1,2,1,5/7,6,7,2/8,1,
8,7/1,8,1,{16}6/3,5,4,3,2,1,8,7,
{8}6/2-5[8:1],2,2/7-4[8:1],7,7/1-5[8:1],2,1/7<4[8:1],6,
7/1-4[8:1],3,5/1-6[8:1],7,1/5,3,2/8,7/1,
{2}4-1[8:1]/8-5[8:1],7>2[8:1]/3p6[8:1],
{32}5b/1b,8/4,3/7,6/2,{8}1h[8:3]/5h[4:1],{16},,,,,,8/2,3/7,{4}4/6,
{2}7w3[8:1],{4}1-6[8:1]*-4[8:1],1,
8-5[4:3],1,2-7[8:1],2,
4>8[4:1],8p4[8:1],4p8[4:1],8<4[4:1],
4-1[8:5],8,7-2[8:1],7,
{8}7<4[8:1],8,1,2<7[8:1],3,4,5>2[8:1],6,
7,8<5[8:1],1,2,3>8[8:1],4,{4}5,
2-5[8:1]/6-1[8:1],6>3[8:1]/2<7[8:1],6q2[8:1]/2q6[8:1],6>3[8:1]/2<7[8:1],
,6/2q6[8:1],2/8-4[8:1],8/3,
{8}3/7-5[8:1],3,3/7,3,3/8-5[8:1],3,3/8,3,
3/8-4[8:1],3,3/8-6[8:1],3,3/8-4[8:1],3,3/8-2[8:1],3,
3/8-4[8:1],3,3/8-6[8:1],3,3/8-4[8:1],3,3/8,3,
{4}3b,3/7p3[8:1],7/1-5[8:1],1/6,
{16}2,1,3,8,4,7,5,6,3,4,2,5,1,6,8,7,
{1}6/1h[2:5],
{4},,,,6,
6,{32}6b,7,8,1,2,3,4,5,{4}6>2[4:1]/2v5[8:1],
2<7[4:1],7qq4[8:9],,1-7[8:1],
1,1-3[8:1],1,{8}2-5[8:1],1,
2,7-3[8:1],8,7,2>5[8:1],1,2,7p3[8:1],
7,8p4[8:1],8,1q5[8:1],1,2q6[8:1],{4}2,
{8}7<4[8:1],8,1,2>5[8:1],1,8,7-4[8:1],8,
1,2-5[8:1],1,8,{4}7s3[8:1]*-3[8:1],7b,
{8}4/5,6,7/8,1,2/4,3,6/2-7[8:1],6-1[8:1],
2-5[8:1],6-3[8:1],2-7[8:1],6-1[8:1],2-5[8:1],6-3[8:1],2,6,
{4}1-5[8:1],1/7-4[8:1],7/2q6[8:1],2/8,
{8}7/1-5[8:1],1,1/7-4[8:1],7,7/2q6[8:1],2,{4}2/8,
8-6[8:1]/1-5[8:1],8/1,8-4[8:1]/1-3[8:1],8/1,
8-6[8:1]*-2[8:1],8<4[8:1],8>4[8:1],8,
{8}7-4[8:1],8,1,2-7[8:1],3,4,5-2[8:1],6,
7,8,{4}7-5[8:1]/1-5[8:1],7-3[8:1]/1-3[8:1],7/1,
1-5[8:1],{8}1,7-4[8:1],,7,,5/3,
,7/1,4/5,2/8,{16}2,3,4,5,6,7,8,1,
{1}2s6[4:27]/8s4[4:27],
,,,,,,{4},{16},,,1b,
,,,,,,,4,
,5,,4,,4,,3,,4,,1,,1,,6,
,5,,8,,8,,4,,5,,6/3,,,,1h[8:3],
,8,,7,,6h[8:3],,5,,4,,3h[8:3],,2,,1,
,8h[8:3],,1,,2,,3h[4:1],,4,,5,,,,8h[8:3],
,1,,2,,3h[8:3],,4,,5,,6h[8:3],,7,,8,
,1h[8:3],,8,,7,,6h[8:3],,5,,4,,,,1-5[8:1],
,1,,7<4[8:1],,7,,2-6[8:1],,2,,8-5[8:1],,8,,1-4[8:1],
,1,,7-3[8:1],,7,,2>5[8:1],,2,,8-4[8:13],,8,{1},,{16},4bw8[8:7],
{1},{4},,{16},2,
1,3h[8:7]/8h[8:7],,,,,,,,,,,,,,,,1h[8:5]/6h[8:5],
,,,,,,,,,,,,,,,1/2,
,3,,4/5,
,6,,8/7,,2-5[8:1],,1,,2,,7,,8,,7-2[8:1],
,,,7/3-6[8:1],,,,3/5-1[8:1],,,,5,{32},,,,,,7/3,6,
{16}5,1,,8,{32},,2/6,3,{16}4,8,,1,,8,{32}7/1,6,{16}5,,4/3,
,1,{32}2/8,3,{16}4,,6/5,,7z3[8:1]*-3[8:1],,,,7b,,,,4/5,
,6,,7/8,,1,,2/4,,3,,8/2,,5/4,,7/1b,
,5/3b,,2/1b,,6/4b,,8b/7,,2b/4,,1b/7,,,,6/1-5[8:1],
,,,1/7-4[8:1],,,,7/2q6[8:1],,,,2/8,,,,7/1-5[8:1],
,1,,1/7-4[8:1],,7,,7/2q6[8:1],,2,,2/8,,,,8-6[8:1]/1-5[8:1],
,,,8/1,,,,8-4[8:1]/1-3[8:1],,,,8/1,,,,8b-6[8:1]/1b-6[8:1],
,,,8b-3[8:1]/1b-3[8:1],,,,1b-5[8:1]*w5[8:1],,,,1b,,,,7-4[8:1],
,8,,1,,2-7[8:1],,3,,4,,5-2[8:1],,6,,7,
,8,,1/7,{32},,,,,,7/1,6,5,4,,,,,2/8,3,4,5,,,,,{16}1-5[8:1],
,,,1,,7-4[8:1],,,,7,,,,5/3,,,,7/1,
,4/5,,2/8,,5/4,,,,4/6,,,,6/2-4[8:1],
,6,,6/2,,6,,6/1-5[8:1],,6,,6/1,,6,,6/2-4[8:1],
,6,,6/2,,6,,6/1pp4[8:5],,6,,6/1,,6,,6,
,6,,6,,6,,6/5,,7,,8/1,,2,,3-7[8:1],
,3,,4-8[8:1],,4,,5-1[8:1],,5,,6-2[8:1],,6,,,,,,3,
4,2h[4:1],,6,5,7h[4:1],,3,4,1h[4:1],,6,
5,8h[4:1],,2,1,3h[4:1],,7,8,6h[4:1],,,,,,3,
4,3,8,6,5,7,1,3,4,2,8,6,5,6,1,4,
3,5,4,6,3,4,2,6,5,7,2,1,3,7,8,6,
,4,,8-6[8:1],,4,,8-2[8:1],,4,,8-5[8:1],,4,,8-3[8:1],
,4,,8-6[8:1],,4,,8-2[8:1],,4,,8-5[8:1],,4,,8-3[8:1],
,4-7[8:1],,8-5[8:1],,4-1[8:1],,8,,,,,,,,3,
4,2,6,5,7,3,4,1,6,5,8,3,6,4,5,4-8[8:1],
,4,,6-1[8:1],,6,,3-7[8:1],,3,,5-1[8:1],,5,,,,5,
,6/2,,4/8,,2-5[8:1]/6-1[8:1],,,,6b/2b,,,,8-4[8:1],
,,,8,,2>5[8:1],,,,2,,,,8/1,,,,5/4,
,4/7,,5/2,,3,4,2,5,3,4,2,5,7z3[8:29]/1z5[8:29],
E
