&title=Howlin' Pumpkin
&artist=EX-AMON
&first=0.35
&des=ImagineWind
&des_5=ImagineWind
&lv_5=13+
&inote_5=(140){4}5/4h[4:1],,3/7,{12}2,{24}2,1,{12},{2}3/8h[4:1],
{4}6/4,{8}3,7,
2/8,3,7/1,6,2/8,4/5,7/1,5/4,
{32}1x,2x,3x,4x,5x,6x,7x,8x,1x,2x,3x,4x,5x,6x,7x,8x,{2}1xh[8:3],
{8}5b/2bV48[4:1],6/1,2/5,5,{4}6h[8:1],{12}5,{24}5,3,{12},{8}8/2,
4,{12}7V51[4:1],{24}7,4,,4,{4}7,{8}4,3,
2/8,4/5,{12}3V15[4:1],{24}3,8,,8,{4}3,{8}6,7,
8/4,3,6/2,8,{12}2-4[8:1],{24}2,7V51[4:1],,7,{8}2,7,
{4}3h[8:1],6h[8:1]/4h[8:1],{8}6/5h[8:1],7x,7x,3x,
{4}2xh[8:1]/6xh[8:1],5h[8:1]/2h[8:1],{8}2/4,3x,8x,3x,
{4}6xh[8:1]/4xh[8:1],6h[8:1]/3h[8:1],{8}6/2,7x,7x,4x,
{4}3h[8:1]/5xh[8:1],6h[8:1]/2h[8:1],{12}1,{24}1,7,,7,{4}4h[8:1],
{8}8x/3xh[8:1],8,7/3h[8:1],7,6/3,6x,6x,4x,
4x/7xh[8:1],4,3/7h[8:1],3,2/7,2x,8x,3x,
7x/3xh[8:1],7,6/3h[8:1],6,3/6,7x,7x,4x,
3x/7,4/5,2/6,4/5,{12}8,{24}8,2,,2,{4}6h[8:1],
{8}3b/7bV51[4:1],2/8,7/3,3,2V84[4:1],3/7,6/2,6,
7V51[4:1],8/3,7/4,3,4,2/8,6/4,5,
6/2V48[4:1],7/1,2/6,6,7V15[4:1],6/2,3/7,3,
2V48[4:1],1/6,2/5,6,{12}7,{24}7,1,,1,{4}5h[8:1],
{8}6/1-5-3[4:1],8/7,1/6,6,7V16[4:1],8/2,7/3,3,
4-8-2[4:1],7/3,4/6,7,6,5/1,7,4/6,
3/8-4-6[4:1],1/2,8/3,3,2V83[4:1],1/7,2/6,6,
5-1-7[4:1],2/6,5/3,2,{12}B3,{24}B7,E7,,B4,{4}E5,
{1}1>8[2:3]*pp8[2:3],
,{4}1/8<1[2:3],
C,,C,
,C,,C,
8/1v4-2[2:3],8,7,7,
6,6,5,5,
{16}2,4,3,4,2,5,4,5,1,5,4,5,8,6,5,6,
{4}1h[4:3],{8}B6,B7,{2}C,
{32}1b-5[8:1],2/8,3/7,4/6,{8},1/7-4[8:1],8,{4}7/3V15[6:1],{12}3/7,{24}8,8h[8:5],{12},{8}E6,
B3,B7,E2,C,8b/4b,6b/2b,1/7,
{32}8b,7/1,2/6,3/5,{8},{12}6,{24}6,2,,2,{4}8b-4[16:1]*-5[16:1],{8}8b,3xh[8:3],
B6,B2,8-6[16:1],8-2[16:1],{12}8b-4[8:1],{24}5,8bx,,5,{8}8bx,1,
5/2-6[8:1],6/1-7[8:1],2V48[4:1],1,{4}2,{12}6-4[8:1],{24}6,1-5[8:1],{12},{8}6,
1,{12}7v4-6[4:1],{24}7,3,,3,{4}7,{8}2-4[8:1],1/5-8[8:1],
2,5,{12}3V52[4:1],{24}3,7,,7,{4}3,{8}6-1[8:1],5/1-6[8:1],
6-4[8:1],3-8[8:1],2,3,{12}6,{24}6,1,,1,{4}5h[8:1],
{2}1xh[4:1]/5q7[2:7],2xh[4:1],
{4}3xh[8:1],{8}4x-1[8:1],3x,{2}4x,
1xh[4:1],2xh[4:1],
{4}3xh[8:1],{8}4x-1[8:1],3x,{4}4x,8-6[8:1],
1/8-2[8:1],7/8-6[8:1],1/8-2[8:1],7/8-5[8:1],
1/8-3[8:1],7/8-5[8:1],2/8-4[8:1],8/6,
{16}7,5,6,5,7,4,5,4,8,4,5,4,1,3,4,3,
{8}8h[8:1],2h[8:1],7h[8:1],3h[8:1],5h[8:1],2b,{4}4b/8b,
{8}6/2V48[4:1],1/7,2/6-1[8:1],5,{4}6,{12}3-1[8:1],{24}3,8-4[8:1],{12},{8}3,
8,{12}2V48[4:1],{24}2,5,,5,{4}2,{8}5-7[8:1],6/1-3[8:1],
5,1,{12}6V85[4:1],{24}6,2,,2,{4}6,{8}3-1[8:1],7-5[8:1],
3-8[8:1],7-4[8:1],3,7,{12}2-4[8:1],{24}2,6-8[8:1],,6,{8}2,6,
3V52[4:1],7/1,3/8-4[8:1],6,{4}8,{12}3-8[8:1],{24}3,7-4[8:1],{12},{8}3,
7,{12}1V73[4:1],{24}1,5,,5,{4}1,{8}5<8[8:1],6/2-4[8:1],
5,2,{12}6V84[4:1],{24}6,2,,2,{4}6,{8}1-3[8:1],5-7[8:1],
1-4[8:1],5-8[8:1],1,5,{12}3,{24}3,7,,7,{8}1-5[8:1],7/8,
1/6V48[4:1],7,6/1-3[8:1],3-7[8:1],{4}1,{12}5<8[8:1],{24}5,1-3[8:1],{12},{8}5,
1,{12}6V48[4:1],{24}6,1,,1,{4}6,{8}1-4[8:1],3/7-5[8:1],
1,7,{12}3-8[8:1],{24}3,4-7[8:1],{12},{8}3,4,1>4[8:1],8-6[8:1],
1-5[8:1],8-4[8:1],1,8,{12}3,{24}6,5/7,,3,{8}2/4,1/8,
6/2V48[4:1],7/1,2/5-1[8:1],7,{4}5,{12}3>8[8:1],{24}4,5-7[8:1],{12},{8}3,
5,{12}2v5-3[4:1],{24}1,8,,8,{4}2,{8}6V84[4:1],7/2,
6/1,2,{12}3-8[8:1],{24}3,8-4-1[4:1],,8,{4}3,{8}7,8h[8:5],
E6,C,B4,B2,E1,3b/7b,5b/1b,3b/4b,
{2}2xh[4:1]/5x<8[8:1],{8}3x/8x<5[8:1],2x,2x,3x,
{2}6xh[4:1]/4x>1[8:1],{8}6x/1x>4[8:1],7x,8x,7x,
{2}3xh[4:1]/5x-8[8:1],{8}3x/8x-5[8:1],2x,2x,3x,
{2}6xh[4:1]/4x-1[8:1],{12}8,{24}8,3,,3,{4}5h[8:1],
4/3h[8:1],4/3h[8:1],5/6h[8:1],5/6h[8:1],
2/8h[8:1],{8}1w5[8:1],2/8,{4}1,3/7,
5/6h[8:1],5/6h[8:1],4/3h[8:1],4/3h[8:1],
6/1h[8:1],{8}8/7,6/1,{12}5,{24}5,1,,1,{4}6h[8:1],
{8}7/1-5[8:1],2/8,1/3,4,6/4-8[8:1],3/5,4/2,1,
7/1-5[8:1],2/6,1/7,8,4/8-4[8:1],7/3,8/2,1,
2/8-4[8:1],7/1,8/6,5,3/5-1[8:1],6/4,5/7,8,
2/8-4[8:1],7/3,8/2,1,{12}2,{24}2,6,,6,{8}4h[8:1],5-7[8:1],
6,5/4-2[8:1],3,4/5-7[8:1],6,5/4-2[8:1],3,4/5-8[8:1],
6,5/4-1[8:1],3,4/5v8[8:1],6,5/4v1[8:1],3,4/5,
8,6/4,1,3/5,7/1,4/6,2/8,3/5,
{16}2,5,4,5,1,6,5,6,{12}E1,{24}E7,B6,,B3,{8}B4,C,
{4}1h[4:7],E8,B2,B6,
E4,E6,{2}E5,
