&title=C-U-NRG
&artist=Halv
&first=0
&des=H-S-NCN
&des_5=H-S-NCN
&lv_5=14
&inote_5=(155){4},,,,{32}3b/7b,
2/6,{16}1/5h[16:27],{8},8,1,2,1,7,1,
{4}3<6[8:1],3q7[8:1],3v8[8:1],3,
{32}1b/7b,2/6,{16}5/3h[16:11],{8},4,6,1,7,5,7,
{32}2b/8b,3/7,{16}6h[16:3]/4-8[8:1],{4},{8}7b-5[8:1]*-3[8:1],,7b,{4},{8}2b/5b,
2,6/3,6,7/5,{16}5,6,,5,{8}7,
8/4,8,3/7,3,2/6,{16}2,5,,5,{8}3,
{16}6b,4,6,4,7,3,7,3,8,1,7,2,5<4[2:1],4,6,3,
{2}5bx,{4}5z1[8:1]*s1[8:1],Cf,
4b/6b,{16}3,7,2,8,1,1,1,1,1,1,1,1,
{24}2,3,4,1,{48},{16}1,{24}8,7,6,1,{48},{16}1,{24}2-6b[8:1],3,4,8,7,6,{4}2b/Cf,
{8}7b/3b>8[8:1],{16}2,4,{8}3,{16}7,6,{8}5-1[8:1],2,3/5,4,
5>2[8:1],{16}1,1,{8}5,{16}7,6,{8}5-7[8:1]/8-4[8:1],4-8[8:1],{4}8/5,
{8}6<1[8:1],{16}7,5,{8}6,{16}2,3,{8}4-8[8:1],7,6/4,5,
4<7[8:1],{16}8,8,{8}4,{16}2,3,{8}4-2[8:1]/1-5[8:1],5-1[8:1],{4}1/4,
{8}3bV17[8:1],{16}2,4,{8}3,{16}6,5,{8}4-8[8:1],8,1/4,2,
3<6[8:1],{16}1,1,{8}3,{16}1,8,{8}7-4[8:1]*-3[8:1],5/4-7[8:1],{4}7,
{32}E1,D2,E3,D4,E5,D6,E7,D8,D1,E2,D3,E4,D5,E6,D7,E8,1x/D1,2x,3x,4x,5x,6x,7x,8x,1x,2x,3x,4x,5x,6x,7x,8x,
{4}1bx-3[8:1]*-5[8:1],1b-7[8:1]*-4[8:1],1bw5b[8:1],A1/B1/Cf/B5/A5,
{8}7b/3b-5[8:1],{16}2x,1,{8}3,{16}7x,8,{8}5/1v6[8:1],4x,3/1>4[8:1],2x,
1,{16}7x,7,{8}5v4[8:1],4xV27[4:1],3,2x,{4}1h[8:1],
{24}E2,B2,B3,6x,{48},{16}6,{8}4v7[8:1],3x,2/4-6[8:1],{16}1x,1,{8}4,{16}2x,2,
7,8,6x,5,1-5[8:1],2,4x,3,{4}1bv7[8:1]*v3[8:1],1b,
{8}2b/6b-4[8:1],{16}7x,8,{8}6,{16}2x,1,{8}4/8v3[8:1],5x,6/8<5[8:1],7x,
8,{16}2x,2,{8}4v5[8:1],5xV72[4:1],6,7x,{4}8h[8:1],
{32}E1,D8,E7,D6,E5,D4,E3,D2,D1,E8,D7,E6,D5,E4,D3,E2,8x/D1,7x,6x,5x,4x,3x,2x,1x,8x,7x,6x,5x,4x,3x,2x,1x,
{4}8bx<2[8:3],{8}2,1,{4}8s4[8:1]*z4[8:1],8b/Cf,
1b/7h[1:1],1,{16}3h[8:1],{8},{16}3h[8:1],{8},3h[1:1],
,{32}D8,A7,D7,A6,{16}D6,D5,{8}D4,{16}2h[8:1],{8},{16}1h[8:1],{8},1h[8:3],
{4}5,5h[4:3],{16}7h[8:1],{8},{16}7h[8:1],{8},7h[1:1],
,{32}D6,A5,D5,A4,{16}D4,D3,{8}D2,{16}8h[8:1],{8},{16}8h[8:1],{8},8,
{4}1b-5-3[4:1],B7,1-5-7[4:1],B3,
2-5-3[4:1],B7,8-5-7[4:1],B2,
{8}1p3[4:1],2,{4}3>4[4:1],4-8[8:1],2-5[8:1],
2/1p7[8:3],{8}4x,2x,{4}1xw5b[8:1],1b/Cf,
{8}8/2-5[8:1],4,1/2,{16}7,7h[16:1],{8}4>1b[8:1],2/8<5[8:1],4,8,
1xV35[8:1],{16}2,7,{8}1,{24}6,7,8,{8}1v6b[8:1],4,1/3,2,
1-5[8:1],3/4,1/7,{16}6,6,{8}3-8b[8:1],1/7-4[8:1],3/5,7,
1V75[8:1],{16}2,2,{8}1,{24}4,3,2,{4}1-4[8:1]/4x-7[8:1],1/4,
{8}1/7-4[8:1],5,8/7,{16}2,2h[16:1],{8}5<8b[8:1],7/1>4[8:1],5,1,
8xV64[8:1],{16}7,2,{8}8,{24}3,2,1,{8}8v3b[8:1],5,8/6,7,
8-4[8:1],6/5,8/2,{16}3,3,{8}6-1b[8:1],8/2-5[8:1],6/4,2,
8bh[4:1],{32}D5,A4,D4,A3,{16}D3,D2,{8}D1,5,{16}6,5/7,,3,{8}2/4,
(175){1}1bq3<3b[2:7]/5bq7>7[2:7],
,,,{32}3b/7b,
2/6,{16}1/5h[16:27],{8},8,1,2,1,7,1,
{4}3<6[8:1],3q7[8:1],3v8[8:1],3,
{32}1b/7b,2/6,{16}5/3h[16:11],{8},4,6,1,7,5,7,
{32}2b/8b,3/7,{16}6h[16:3]/4-8[8:1],{4},{8}7b-5[8:1]*-3[8:1],,7b,{4},{32}6b/2b,
7/3,{16}8/4h[16:27],{8},1,8,7,8,2,8,
{4}6>3[8:1],6p2[8:1],6v1[8:1],6,
{32}8b/2b,7/3,{16}4/6h[16:11],{8},5,3,8,2,4,2,
1qq7[8:1],7>1[8:1],{4}1>4[8:1],5s1[8:1]*z1[8:1],Cf,
8bV64[4:1],B6,8V24[4:1],B2,
7<6-4[4:1],E8,1>2-4[4:1],E1,
6-4[4:1],D8,2-4[4:1],D1,
6>4[4:1],A8,3h[4:1],{8}B7/E7/B6/Ch[8:1],B2/E3/B3,
4x/8xh[8:1],4x,3/7h[8:1],3,2/6h[8:1],2,1/5h[8:1],1,
8/4h[8:1],8,7/3h[8:1],7,6/2h[8:1],6,5/1h[8:1],5,
{16}1,5,1,5,2,6,2,6,{32}3,4,5,6,7,8,1,2,3,4,5,6,7,8,1,2,
{4}3/8<2[8:3],{8}2x,1x,{4}8xs4[8:1]*z4[8:1],8b/Cf,
3bx/5bx,{16}2,6,1,7,8,8,8,8,8,8,8,8,
{24}1,2,3,8,{48},{16}8,{24}7,6,5,8,{48},{16}8,1>4-8[4:1],7,1,7,{4}A1f,
{8}6b,{16}2,1,3,4,2,5,4-8[8:1],6,3,7,{8}4<7[8:1],5,
{4}4/1h[4:1],{16}8,2,4,3,7-2[8:1],8,6,5,{8}7<4[8:1],3,
{4}7/1h[4:1],{16}5,2,4,3,7v4[8:1],5,6,4,{8},2,
{16}8bw4b[16:1],{8},{16}8b,{8},6h[8:1]/2h[16:1],{16}1bw5b[16:1],{8},{16}1b,{8},7h[8:1]/3h[16:1],
2b,{16}7,8,6,5,7,4,5-1[8:1],3,6,2,{8}5>2[8:1],4,
{4}5/8h[4:1],{16}1,7,5,6,2-7[8:1],1,3,4,{8}2,5,
{12}6,5,7,3,4,2,8,8,8,4/8,4,4,
{6}4b/7bp3[12:1],{12}3,2bq6[12:1],,7,{4}8bs4[8:1]*z4[8:1],8b/Cf,
7b/1bh[4:1],{16}3,2,5,4,7-4[8:1],6,8-2[8:1],1,{8}7<3[8:1]*V53[8:1],8,
{4}7,{16}2,1,3,4,2-5[8:1],6,5>2[8:1],7,{4}2<7b[8:1],
8h[4:1],{16}6,7,4,5,2>5[8:1],3,1-7[8:1],8,{8}2-6[8:1],1,
2-4[8:1],{16}8,8,{8}2pp5[8:3],{16}6,6,{8}2,6h[16:1],7h[16:1],8h[16:1],
{4}4b/8bh[4:1],{16}6,7,4,5,2-5[8:1],3,1-7[8:1],8,{8}2>6[8:1]*V46[8:1],1,
{4}2,{16}7,8,6,5,7-4[8:1],3,4<7[8:1],2,{4}7,
{16}1,1,8,8,2,2,7,7,3,3,6,6,4,4,5,5,
{32}3,4,5,6,7,8,1,2,3/8h,4,5,6,7,8,1,2,7h/3-7b[8:1],4,5,6,7,8,1,2,{4}3b/6h/B3f/Cf/B7f,
{8}4bx/6bx,{16}3,7,2,8,1,1,1,1,1,1,1,1,1,1,
{24}2,3,4,1,{48},{16}1,{24}8,7,6,1,{48},{16}1,{24}2,3,4,5bx/6bx,{12},{4}7xw3b[8:1],
{64}7b/B7,Cf,B3,D3/D4,{16}A3,
E
