&title=StufeStern
&artist=Feryquitous
&first=0.02
&des=jianouo
&lv_5=14
&inote_5=(140)
{8},,,
{16},
{8}Chf[8:3],,,B2/A2/E2/B1/E1/B8/E8/B7/E7/A7/E3/A8/A1,,
{1},,,
{8},,,,,,6h[2:1],,,,5h[2:1],,,,4h[2:1],,,,3h[2:1],,,,7h[2:1],,,,5h[2:1],,,,3h[2:1],,,,1h[16:5],,
{16}8h[16:1],,81,,7bx/2bx,,3,4,,4,,6,5,6h[8:1],,E5,E4,E3,E2,E1,6,5,6,5h[8:1],,7h[8:1],,3,4,3h[8:1],,E5,E6,E7,E8,E1,3,4,3,4h[8:1],,2h[8:1],,6,5,7h[8:1],,E6,E5,E4,E3,E2,7,8,7,8h[8:1],,6h[8:1],,2,1,2h[8:1],,E1,E8,E7,E6,E5,2,1,2,1h[8:1],,3h[8:1],,7,8,6h[8:1],,E8,E1,E2,E3,E4,6,5,6,5h[8:1],,7h[8:1],,3,4,2h[8:1],,E4,E5,E6,E7,E8,3,4,3,4h[8:1],,2h[8:1],,6,5,7h[8:1],,E1,E2,E3,E4,E5,8V62[8:2]
,,1s5b[8:4],,2-4[8:1],,,,,,,,Chf[8:2],,,,1bh[8:3],,,,,,,,E7/B7/B6,,3,4,,25,,4/6h[8:2],,,,,,,5,7h[16:2],,5,6,4h[8:1],,5,3,4h[16:7],,2,,6,,3,5,4-1[4:3],,,,,,,,,E6,,,B6,,,B7,,A8,E2,E3,E4,E8,E7,E6,C,8bxh[8:3],,,,,,,,E3/B2/B3,,6,5,,74,,5/3h[8:2],,,,,,,4,2h[16:2],,4,3,5h[8:1],,4,6,5h[16:7],,7,,3,,6,4,5-8[4:3],,,,,,,,,E4,,,B3,,,B2,,
{8}1xh[8:2],,
{32}E6,B6,B7,E8,E2,B2,B3,E4,
{8}8bxw4b[16:2],,,,26,
{16}4,3,6,5,
{32}8b/E5,7/B4,6/B3,5h[32:3]/E3,
{16},
{32}8bx,7,6,5h[32:2],
{16},
{32}8bx-4[8:1]/E5,7/B4,6/B3,5h[32:3]/E3,
{16},,8/7V58[16:3],,6,,7,8w4[8:1],,,,,,,
{32}E4,E3,E2,E1,E8,E7,E6,E5,
{16}7xh[8:1],,5x,6x,3x,4x,
{32}1b/E5,2/B5,3/B6,4h[32:3]/E7,
{16},
{32}1b,2,3,4h[32:2],
{16},
{32}1b-5b[8:1]/E5,2/B5,3/B6,4h[32:3]/E7,
{16},,1/2V41[16:3],,3,,2,1w5[8:1],,,,,,,7xh[16:6]/3xh[8:1],,,,4b,,3,5,2,4,
{32}1b,8,7,6h[32:2],
{16},
{32}1b/E6,8/B5,7/B4,6h[32:3]/E4,
{16},
{32}1b-5[8:1],8,7,6h[32:2],
{16},,8V61[16:3]/1,,7,,8,1w5[8:1],,,,,,,
{32}E4,E5,E6,E7,E8,E1,E2,E3,
{16}5x,1x,6x,2x,7x,3x,
{32}8b,1,2,3h[32:2],
{16},
{32}8b/E4,1/B4,2/B5,3h[32:3]/E6,
{16},
{32}8b-4b[8:1],1,2,3h[32:2],
{16},,1-5[16:2]/8,,2,,1,7h[8:2],,,5,5h[8:3],4,4h[8:2],,,,,6b-3[16:1]/3b-6[16:1],,,,,,
{32}8b/E5,7/B4,6/B3,5h[32:3]/E3,
{16},
{32}7b,6,5,4h[32:2],
{16},
{32}8b-4[8:1]/E4,7/B3,6/B2,5h[32:3]/E2,
{16},,8/7V52[16:3],,6,,7,8w4[8:1],,1,1,,,,
{16}6x-2[16:1]/2x-6[16:1],,,,6b/2b`Cf,,,,,,
{32}1b/E5,2/B5,3/B6,4h[32:3]/E7,
{16},
{32}2b,3,4,5h[32:2],
{16},
{32}1b-5[8:1]/E6,2/B6,3/B7,4h[32:3]/E8,
{16},,1/2-6[16:2],,3,,2,8,,,8v2[8:1]*v6[8:1],,B7,B1
,8x-3[12:1]*-5[12:1],,,,8b,,,,,,
{32}8b/3,1,2,3h[32:2],
{16},
{32}8b/E4,1/B4,2/B5,3h[32:3]/E6,
{16},
{32}8b-4[8:1],1,2,3h[32:2],
{16},,1V37[16:3]/8,,2,,1,8w4[8:1],,,,,,,
{32}E6,E5,E4,E3,E2,E1,E8,E7,
{16}4x,8x,3x,7x,2x,6x,
{32}1b,8,7,6h[32:2],
{16},
{32}1b/E6,8/B5,7/B4,6h[32:3]/E4,
{16},
{32}1b-5[8:1],8,7,6h[32:2],
{16},,1bxV36[32:5]*V74[32:5],,,,,,,,
{16}7bx/3bx,,6,5,,7/4h[8:3],,3<6[8:1],,E3/B2,,,,1,2,3,8,,3,4,,5h[8:3]/2,,6>3[8:1],,B7/E7,,,,8,7,6,2,,7,8,,6/1h[8:3],,2<7[8:1],,E3/B3,,,,4,3,2,5,,2,1,,8h[8:3]/3,,7>2[8:1],,E7/B6,,,,5,6,7,2,1,2,8h[8:3],,2>5[8:1],,4>1[8:1],,,,7,,7,6,5,2,2,1,3h[8:3],,6<1[8:1],,8<5[8:1],,,,4,,4,3,2,7,8,7,1h[8:3],,7<4[8:1],,5<8[8:1],,,,2,,2,3,4,7,7,8,6h[8:3],,3>8[8:1],,1>4[8:1],,,,5,,5,6,7,
8bx/4b,,6,5,,7/4-8[8:1],,2-5[8:1],,4,,2,,7,6,5,E2/B1/E1,,4,3,,5-1[8:1]/2,,7-4[8:1],,5,,7,,2,3,4,E1/B8/E8,,6,5,,8-4[8:1]/3,,6-1[8:1],,8,,6,,3,2,1,E6/B5/E5,,3,4,,1-5[8:1]/6,,3-8[8:1],,1,,3,,6,7,8,3,4,3,5-1[8:1],,7<4[64:7],,5<8[64:7],,7,,2,,2,3,4,7,5,6,4-8[8:1],,2>5[8:1],,4>1[8:1],,2,,7,,7,6,5,2,1,2,8-4[8:1],,6<1[64:7],,8<5[64:7],,6,,3,,3,2,1,6,8,7,1-5[8:1],,3-8b[64:5],,1V35[32:5]*V37[32:5],3bx,,,,,,,,
{8}
{8}1bxw5b[16:2]/Cf,,,,7h[8:1]/3,
{16}5,6,3,4,
{32}1b/E5,2/B5,3/B6,4h[32:3]/E7,
{16},
{32}2bx,3,4,5h[32:2],
{16},
{32}1bx-5[8:1]/E6,2/B6,3/B7,4h[32:3]/E8,
{16},,1/2V41[16:3],,3,,2,1w5[8:1],,,,,,,
{32}E6,E7,E8,E1,E2,E3,E4,E5,
{16}2xh[8:1],,4x,3x,6x,5x,
{32}8b/E5,7/B4,6/B3,5h[32:3]/E3,
{16},
{32}7b,6,5,4h[32:2],
{16},
{32}8b-4b[8:1]/E4,7/B3,6/B2,5h[32:3]/E2,
{16},,8/7V58[16:3],,6,,7,1w5[8:1],,,,,,,3xh[16:6]/7xh[16:2],,,,4b,,2,3,1,4,
{32}1b,8,7,6h[32:2],
{16},
{32}1bx/E6,8/B5,7/B4,6h[32:3]/E4,
{16},
{32}1bx-5[8:1],8,7,6h[32:2],
{16},,8V61[16:3]/1,,7,,8,1w5[8:1],,,,,,,
{32}E6,E5,E4,E3,E2,E1,E8,E7,
{16}3x,7x,2x,6x,1x,5x,
{32}8b,1,2,3h[32:2],
{16},
{32}8bx/E4,1/B4,2/B5,3h[32:3]/E6,
{16},
{32}8bx-4[8:1],1,2,3h[32:2],
{16},,1-6[16:2]/8,,2,,1,7h[8:2],,,6,6h[8:3],2,2h[8:2],,,,,
{32}1b-5[16:1]/5b-1[16:1],48,
{16}37,,,,,
{32}2b/E6,3/B6,4/B7,5h[32:3]/E8,
{16},
{32}2b,3,4,5h[32:2],
{16},
{32}1b-5[8:1]/E6,2/B6,3/B7,4h[32:3]/E8,
{16},,1/2V47[16:3],,3,,2,1w5[8:1],,8,8,,,,
{16}3x-7[16:1]/7x-3[16:1],,,,3b/7b`Cf,,,,,,
{32}8b/E5,7/B4,6/B3,5h[32:3]/E3,
{16},
{32}7b,6,5,4h[32:2],
{16},
{32}8b-4[8:1]/E4,7/B3,6/B2,5h[32:3]/E2,
{16},,8/7-3[16:2],,6,,7,1,,,1v6[8:1]*v4[8:1],,B3,B7
,1<5[8:1]*>5[8:1],,,,1b,,,,,,
{32}1b/6,8,7,6h[32:2],
{16},
{32}1b/E6,8/B5,7/B4,6h[32:3]/E4,
{16},
{32}1b-5[8:1],8,7,6h[32:2],
{16},,8V62[16:3]/1,,7,,8,1w5[8:1],,,,,,,
{32}E4,E5,E6,E7,E8,E1,E2,E3,
{16}6x,2x,7x,3x,8x,4x,
{32}1b,8,7,6h[32:2],
{16},
{32}1b/E6,8/B5,7/B4,6h[32:3]/E4,
{16},
{32}1b-5[8:1],8,7,6h[32:2],
{16},,1bxV35[32:5]*V75[32:5],,,,,,,,
{8}7bx/3bx<1[4:2],,,,E3/B2/B3,,,,
{16}4<2[4:2],,3,,,3,,,E3/B2/B3,,,,
{8},,6>8[4:2],,,,E7/B7/B6,,,,
{16}5>7[4:2],,6,,,6,,,E7/B7/B6,,,,
{8},,3qq8[4:2],,,,E7/B7/B6,,,,
{16}4qq1[4:2],,6,,,6,,,E7/B7/B6,,,,
{8},,6pp1[4:2],,,,E3/B2/B3,,,,
{16}5bw1b[16:3],,,,,,,,,E2,E3,E4,E8,E7,E6,C,
