&title=少女S
&artist=SCANDAL
&first=0.02
&des=Shoujo Shinigami
&lv_5=13+
&inote_5=(135.9)
{4},,,1hb[32:1]/8hb[32:1],
{8}5>2[8:1]/6p1[8:1],,56,,8qq1[4:1],17,,3h[4:1],
{8},1,24,1,78,6,45,2,1w5[8:1]/3,,1,,37,2-5[8:1]/6-1[8:1],,26,
{8},8>6[4:1],57,4,,1xb,1xb,2,
{8}4q8[8:1]/3v1[8:1],,43,,2pp1[4:1],13,,6h[4:1],
{8},8,75,8,21,3,54,7,8w4[8:1]/6,,8,,62,7v4[8:1]/3v8[8:1],,73,
{8},1pp5b[8:3],42,5,,8xb,8xb<4[32:5],,
{8}3h[4:1],,2<6[32:5],,4,2,4,6,
{8}7/5h[4:1],,4<8[32:5],,1,3,1,7,
{8}4/6h[4:1],,7>3[32:5],,5,7,5,3,
{8}2/4h[4:1],,5>1[32:5],,6,8x,8xpp1[8:1],,
{8}4h[4:1],,1qq8[8:1],,4,2,8,6,
{8}7/5h[4:1],,4pp5[8:1],,1,3,5,7,
{8}8/6<1b[8:1],,6x/5xh[4:1],,4<7b[8:1],,4x/3xh[4:1],,
{8}2>5b[8:1],,2x/1xh[4:1],,8w4b[8:1],,8x,,
{8}2b/6hb[4:1],,1,8,7/5,6-1[8:1],35,2h[4:1],
{8},1,78,1,24,3-8[8:1],57,6h[4:1],
{8},8,17,8,1-5[8:1]/2,4-2[8:1],1,4,
{8}6,78,2-4[8:1],4-8[8:1],8-6[32:3],6,5h[4:1],,
{8}1bw5[8:1],,1,,73,6-1[8:1]/2-5[8:1],,62,
{8},4,21,8,61,2,3/8z4[8:2],6,
{8}1x,1x,2x,2x,3x/5x,4x-8[8:1]/6x,5x/7x,4xb,
{8},75,4/5w1[8:1],24,5xb,,,,
{4}Ch[4:3]/B3/B7/B4/B6,,,1x>5[8:1]*q6[8:1],
{8}1b,,47,8,17,2,34,6,
{8}5/7-4[8:1],8,3,2,4/2-5[8:1],1,6,7,
{8}5/7-3[8:1],8,3,2,2x-5[8:1]/4x-7[8:1],2x/4x,,,
{4}Ch[4:3]/B6/B2/B5/B3,,,{16}8x-4[8:1],,7,1,
{8}8b,3,5s1b[4:1]/2,6,8,7,6,5,
{8}4-7[8:1]/2,5,1,3,5-2[8:1]/7,4,8,6,
{8}4-8[8:1]/2,5,1,3,5-1[8:1]/7,4xb,8xb<5[8:1]*-5[8:1],,
{8}8>3[8:1]*-3[8:1],,8w4[8:1],,8b,,26,7,
{8}18,3,24,6,57,8,16,25,
{8}3/4h[8:1],3,7/5h[8:1],7,2/4h[8:1],2>6[8:1],1,2b/8b,
{8},75,4/5w1b[8:1],24,5xb,,,,
{32}1b/7b,2,3,4,5,6,7,8,1b/6b,2,3,4,5,6,7,8,{4}1b/5b<3b[4:1],3>5b[4:1],
{8}5,,3,1,7/8h[8:1],5,3/4h[8:1],1,
{8}6-1[8:1]/8,7,5,4,3-8[8:1]/1,2,4,5,
{8}8/6-2[8:1],7,5-8[8:1],4,5/3-5[8:1]*-8[8:1],1xb,3xb,,
{24}1x-5-7b[16:3]/6x,2x/7x,3x/8x,,,,1xb/4xb,,,,,,8x-4-2b[16:3]/3x,7x/2x,6x/1x,,,,8xb/5xb,,,,,,
{8}6,8,2/1h[8:1],4,3/4h[8:1],1,7/8h[8:1],5,
{8}2/4-8[8:1],5,3,5,8/5-1[8:1],4,7,4,
{8}4/2-6[8:1],3,1>4[8:1],8,1-5[8:1]/7-3[8:1],5xb,1xb/7xb,,
{24}7x/4x,6x/3x,5x/2x,,,,2x/5xw1b[8:1],3x/6x,4x/7x,,,,{8}5xb,,7/3qq4[4:1],2,
{8}7,6,5pp4[4:1],6,1,2,3,4,
{8}6/5h[8:1],7,2/4h[8:1],1,7/5h[8:1],8qq1>8b[8:5],1/4,B2/B3/E3f,
{4},,,1hb[32:1]/8hb[32:1],
{8}5>2[8:1]/6p1[8:1],,56,,8qq6<1[4:1],17,,3h[4:1],
{8},1,24,1,78,6,45,2,1/3>6[4:1],,6<3[4:1],,3>6[4:1],,6<3[4:1],,
{8}3,,6h[4:1],,5,8xb/1xb,8xb/1xb,2,
{8}4q8[8:1]/3v1[8:1],,43,,2pp4>1[4:1],13,,6h[4:1],
{8},8,75,8,21,3,54,7,8/6<3[4:1],,3>6[4:1],,6<3[4:1],,3>6[4:1],,
{8}6<3[4:1],,3>6[4:1],,6,5xb,4xb-1[8:1]*q8[8:1],3,
