&title=黒塗り世界宛て書簡
&artist=Frog96
&first=0.095
&des=Shizu
&lv_5=13+
&des_5=Shizu
&inote_5=
(185){4}E7,E3,{8}E1,E2,E3,E4,
,E6,{4}E7,E1,E5,
E7,E3,{8}E8,E7,,E4,
,E2,,E8,,E6,,D3,
,D1,,D7,4,4,{4}Ch[4:1],
{2}2b-4[8:1]*-7[8:1],{8}6,5,4,3h[4:1],
,6,6-4[8:1],2,{2}2-8[8:1],
7-5[8:1]*-2[8:1],{8}3,4,5,6h[4:1],
,3,3-5[8:1],7,{2}7-1[8:1],
4-2[8:1]*-6[8:1],{8}1,2,8,7h[4:1],
,1,1-3[8:1],5,{2}5-7[8:1],
8-6[8:1]*-2[8:1],{8}5,6,4,3h[4:1],
,5h[16:3],{16},7h[16:3],,,{2}1h[4:1],
{1}Ch[4:3],
{8}1,1>3[8:1],,5,6-4[8:1],6,3-7[8:1],3,
{2}6<1[8:1],{8}4,5-1[8:1],,5,
,E3,E4,E6,{4}E7,C,
E7h[4:1],{8}4-2[8:1],4,8-6[8:1],8,,,1,
5<8[8:1],,5,{4}2>5[8:1],{8}2,1,
8,7,{4}6h[8:1],{8}E4,E3,6,E1,
,E1,E2,E3,E5,E6,E7,E8,
3-5[8:1],3,7-1[8:1],7,3-7[8:1],3,8<5[8:1],8,
4,3-1[8:1],,3,{2}E7h[8:3],
{8}1>3[8:1],1,6<8[8:1],6,1-5[8:1],1,,,E1,
E8,E7,E6,E5,{24}E4,B3,B2,{8}E2,E7,
{4}E3h[4:1],{8}7-5[8:1],7,3-1[8:1],3,,8,
7,6,{4}5h[4:1],{8}3,2,{4}1-7[4:1],
7-2[4:1],2-6[4:1],6-3[4:1],3-5[4:1],
5V71[4:1],1V35[4:1],5-1b[8:1],B3f,
{2}Ch[4:11]/2-4[8:1],5-3[8:1],
1-7[8:1],6-8[8:1],
1-4[8:1],1-6[8:1],
{8}A1,A8,A2,A7,E3,E1,{4}E7,
{2}Ch[4:11]/7-5[8:1],4-6[8:1],
8-2[8:1],3-1[8:1],
8-5[8:1],8-3[8:1],
{8}A8,A1,,A7,A1,A8,{4}A2,
{8}1>3[8:1],1,4-6[8:1],4,1-5[8:1],1,{4}7h[4:1],
{8}4,3h[4:1],,1,8,7,{4}6-8[8:1],
{2}4-2[8:1],{8}1,1-4[8:1]*-6[8:1],,,,B6,
B3,B7,{4}B2,E1,
{8}7<5[8:1],7,2V84[4:1],2,,,5-7[8:1],5,
3-1[8:1],3,8-6[8:1],8,2-4[8:1],2,5v8[4:1],5,
2,2,{4}1h[8:1],{8}E7,E6,1,E4,
,E4,E5,E6,E7,E8,E1,E2,
3,E7h[8:1],1-3[8:1],1,5-7[8:1],5,{24},,,,,,{6}E8/E3h[2:1],
E7,E6,8x,{12}7x,C,{6}6x,
{8}5-3[8:1],5,1-7[8:1],1,5-8[8:1],5,1,2,
3h[4:1],E5,E6,E7,E8,{24}E3,B2,B1,{8}E1,C,
4-2[8:1],5-7[8:1],,,1-5[8:1],8-4[8:1],,,3,
2,{4}1h[4:1],{8}7,6,{4}5V31[4:1],
1V75[4:1],5,{2}1s5b[8:1],
{4}B4/B3/B2/B1/Ch[4:11]/6x<1[8:1],D7,2x<7[8:1],D2,
6x>3[8:1],D6,2x>5[8:1],D3,
6x-2[8:1],B6,8x-4[8:1],B8,
{8}A5,A6,A4,A3,E3,E5,{4}E7,
B8/B7/B6/B5/Ch[4:11]/3x>8[8:1],D3,7x>2[8:1],D8,
3x<6[8:1],D4,7x<4[8:1],D7,
3x-7[8:1],B3,1x-5[8:1],B1,
C,C,C,{8}C,E7h[8:1],
3bx,5,E3h[8:1],7x,4,E1h[4:1],,2x,
8,E5h[8:1],6x,3,7,{24}3x,2x,1x,{8}8x,E6h[8:1],
8bx,2,3,E5h[8:1],5x,4x,6,3,
{4}E7h[4:1],{8}1-5[8:1],8,{4}1,{8}6,E2h[4:1],
,7,E3h[8:1],8,{4}E4h[4:1],{8}5x,6,
E5h[8:1],8,3-7[8:1],3,8-5[8:1],8,1x,E3h[4:1],
,6x,4,E7h[8:1],4,3,2,1,
{4}E8h[4:1],{8}1x,8x,7x-3[8:1],,,E5h[4:1],
,8,7,6,E3h[8:1],5,4,E7h[4:1],
,3,2,E6h[4:1],,,1,8,
{4}E3h[4:1],{8}7,E6h[4:1],,2,{4}E4h[4:1],
{8}5-7[8:1],5,1-3[8:1],1,8,7,4,3,
E8h[8:1],2,6b,4,E7h[8:1],1,5b,3,
{4}E6h[4:1],{8}4,4,5,5,3z7[2:1],6,
,,,,,,{4}8-2[8:1],
7-3[8:1]*-3[8:1],6-4b[8:1],,1-3[8:1]*-4[8:1],
{2}1b-7[8:1]*-6[8:1],{8}3,4,5,6h[4:1],
,3,2,1,{4}8-4[8:1],5-7[8:1]*-8[8:1],
{2}5-3[8:1]*-2[8:1],{8}7,8,1,2h[4:1],
,5,6,7,8-4[8:1],4,{4}3-8[8:1]*-1<8[8:1],
{2}3-6[8:1]*-5<6[8:1],{8}1,8,6,5h[4:1],
,1,2,3,{4}4-8[8:1],7-4[8:1]*-5>4[8:1],
{2}7-2[8:1]*-1>2[8:1],{8}5,4,2,1h[4:1],
,5h[16:3],{16},3h[16:3],,,{2}7h[4:1],
7-5[8:1]*>1[8:1],{8}2,3,4,5h[4:1],
,3,7-1[8:1],3,{2}7-5[8:1],
2-4[8:1]*<8[8:1],{8}7,6,5,4h[4:1],
,6,2-8[8:1],6,{2}2-4[8:1],
5-7[8:1]*-3[8:1],{8}8,7,1,2h[4:1],
,8,8-6[8:1],4,{2}4-2[8:1],
1-3[8:1]*-7[8:1],{8}4,3,5,6h[4:1],
,4h[16:3],{16},2h[16:3],,,{4}8h[4:1],{32}D8,A7,D7,A6,D6,A5,D5,A4,
{1}D4,
E
