&title=Gekkouka
&artist=秋田 真典
&first=0
&des=Sakurago
&clock_count=4
&lv_5=13+
&inote_5=(158.00)
{8},,,,,,,,
{8}E8/E1,,E3,,E6/E7,,E4,,
{8}E8/B8,,B2/E3,,B5/E6,,A4/D4,,
{16}2x/8x,,3,4,3,,6,5,
6,,2,4,2,,7,5,
{16}7,,3,1,3,,6,8,
6-1[8:1],,,,6/4-8[8:1],,,,
{8}2x/4x,,{16}3h[8:1]/7h[8:1],,,,
2h[8:1]/B8,,,6h[8:1]/E4,
,,1/B5,,
{8}8xq5[8:4]/4xq1[8:4],,,,,,,,
{8}Ch[8:6],,,,,,,,
{8}2x/8x,2hx[8:3]/8hx[8:3],,,,2/8,,5/6,
{8}4/7,4h[8:3]/7h[8:3],,,,4/7,,1/8,
{16}3/6,,2,,
8/4,7,6,5,1/4,,3,,
5/6,,8,,
{16}1/7,,4,,
3/5,,2,6,
2-6[8:1],,,,
1/2,,,,
{8}7/5,7h[8:3]/5h[8:3],,,,7/5,,1/8,
{8}2/4,2h[8:3]/4h[8:3],,,,2/4,,8/1,
{16}5-1[8:1]/6,,4,,3/5,,2,3,4/8,,7,6,1/5,,3,,
{8}8h[8:6]/4-6-1-5-2[8:4],,,,,,,6,
{8}2h[8:6]/6-3-8-4-7[8:4],,,,,,,,
{8}8V24[16:3]/7h[8:2],,,,5x-2[8:1]/1x-6[8:1],,1x/5x`Cf,,
{16}3x/7x,,2,1,2,,2,4,2,,2,8,2,,2,6,
{16}2,,2,3,2,,2,7,2-8[8:1]*-5[8:1],,,,2,,,,
{16}7x/4x,,6,5,6,,6,8,6,,6,4,6,,6,2,
{16}6,,6,7,6,,6,3,6-2[8:1]*-8[8:1],,,,6,,,,
{16}1x-5[8:1],2,3,4,5,,,,2-6[8:1],3,4,5,6,,,,
{16}3-7[8:1],4,5,6,7,,,,1x,8,7,6,1xp8<1[16:12],2,3,4,
{8},,,,,,,,
{8}7x/1x,7hx[8:3]/1hx[8:3],,,,7/1,,4/3,
{8}5/2,5h[8:3]/2h[8:3],,,,5/2,,8/1,
{16}6/3,,7,,
1/5,2,3,4,8/5,,6,,
4/3,,1,,
{16}8/2,,5,,
6/4,,7,3,
7-3[8:1],,,,
8/7,,,,
{8}2/4,2h[8:3]/4h[8:3],,,,2/4,,8/1,
{8}7/5,7h[8:3]/5h[8:3],,,,7/5,,1/8,
{16}4-8[8:1]/3,,2,5,4,,7,6,5/1,,2,3,8/4,,6,,
{8}1h[8:6]/5-3-8-4-7[8:4],,,,,,,3,
{8}7h[8:6]/3-6-1-5-2[8:4],,,,,,,,
{8}6V47[16:3]/3h[8:2],,,,1x-5[8:1]/8x-4[8:1],,1x/8x`Cf,,
{16}2x/7x,,3,1,3,,7,5,7,,2,4,2-5[8:1],,1,,
{8}8-3[8:1],7,6-1[8:1],5,4-7[8:1],3,2,1,
{16}6x/2x,,7,8,7,,3,5,4v1[8:1]*v7[8:1],,,,4,,,,
{16}2x>5[16:3],,4x<7[16:3],,6x<1[16:3],,8x>3[16:3],,,,B1/B8/E1f,,,,,,
{16}4/7,,1,8,1,,1,3,1,,1,6,1,,1,4,
{8}1>4[8:1]*v7[8:1],,1,,5-2[8:1]/8-4[8:1],,5/8,,
{16}1x,5,1,5,1,7,1,7,3,7,3,7,3,5,3,5,
{16}2x,6,2,6,2,8,2,8,4,8,4,8,4,6,4,6,
{16}1x,5,2,5,E3,5,B4,5,2x,6,3,6,E4,6,B5,6,
{16}3x,7,4,7,E5,7,B6,7,4x,8,5,8,E6,8,B7,8,
{16}2x,2,4,3,7,7,8,5,3x,4,2,5,1qq4[16:7],6pp4[16:6],8,7,
{8},,,,Chf[8:4],,,,
{8}B3/B7/B2/B6,,,,,,5w1b[8:1],,
{8},,
{16}3x/7x,,2,4,2,,6,5,
6h[8:1],,1,,3-7[8:1]/4,,8,,
{16}3/5V31[16:3],,,,5/6-2[8:1],,,,6/8V64[16:3],,,,1/8,,,,
{16}3x/5x,,2,1,4,,7,8,
5-1[8:1],,2/4,,5/6,,8,,
{8}7/2z6[16:7],,8,7,6-8[8:1]*-4[8:1],,,,
{16}5/2,,3,4,3,,7,5,
7-1[8:1],,2,,3/7-5[8:1],,4h[8:1],,
{16}7,,2,,4/1<6[8:1],,,,
1/4w8[8:1],,3,,4,,,,
{16}2-5[8:1]/6,,3,,2/8-4[8:1],,7,,1/8,,2,,3/5,,8/7,,
{8}3-6[8:1]/6,,3p5[8:2]/2,,3h[8:1],,1,,
{16}2/6-2[8:1],3,4,5,6/8x,,,,
7/3-7[8:1],6,5,4,3/1x,,,,
{16}6-2[8:1]/2,3,4,5,6<1[8:1]/2x>5[8:1],,,,
2p6[8:1]/6p2[8:1],,,,,,,,
{16}3/7h[8:1],,2,1,8/3h[8:1],,5,4,
3/6h[8:1],,1,8,7/2,,4/5,,
{16}B8/B7/E8,3,4,3,B7/B6/E7,4,5,4,
3x-8[8:1]/6x-1[8:1],,,,3/6,,,,
{16}7/2>6[8:2],,2/7h[8:2],,,,,,
{8}8-4[8:1],,,,
{16}3/5,,3h[8:1]/5,,
,,6V41[8:2],6,
6h[8:2],,,,,,,,
{16}2b/5,,3,4,3,,2b/6,,
3,4,3,,
5/6,,7/8,,
{16}1/6b,,7,8,7,,2/6b,,
7,8,7,,
1/2,,3/4,,
{16}5b/7b,,6,6,6,,4b/8b,,
6,6,6,,
3/8,,1/6,,
{16}2b/8b,,1,1,1,,3b/7b,,
1,1,1v2-4b[16:3],,
3b/6b,,8hb[32:19],,
{8},,,,
{32}3/7,2/6,1/5,8/4,3/7>6>3b[8:21],,,,{8},,,,,,
{8},,,,,,,,
{8},Ch[8:7],,,,,,,
{8},,,,,,,,
