&title=inkar-usi
&artist=DIA
&first=1.042
&lv_5=14
&des_5=OnePeach
&inote_5=
(102){4}3/5x<8[16:3],{6},{24}3x,4x,{12}5x<1[4:1],{3},{24}3x,4x,
{4}5x<2[16:5],5x,5x,{8}6x,7x,
8x-5[8:1],2x,{16}8x/3x,{8},{32}2x,3x,{4}4xV68[4:1],3x,
{24}1xw5[8:1],{3},,{24}3x,{12}4x,{24}7x,6x,,2x,
{8}3xh[8:1]/7v4[8:1],6,7b,3,6h[8:1]/2v5[8:1],3,2b,6,
2v5[8:1],8<6[16:1],2b,{16}8,{32}A6,A5,{8}A4/E3,C,7bx/1bx,{24}2x,3,4,
{8}5h[8:1]/7v4[8:1],8,7b,2,7h[8:1]/2v5[8:1],1,2b,7,
{32}4xv7[8:1],3x,{16}2xh[16:3],{8}5,4b,2,7h[8:1]/3v8[8:1],4,3b,7,
{32}1<5[8:1],2x,{16}3x,{8}5xh[8:1],{4}1b,{32}5q1[8:1],6x,{16}7x,{8}1xh[8:1],{32}5b,{16},,,{32}8x,
7<3[8:1],6x,{16},{8}2h[8:1],7b,{32}2,{16},{32}5x,6p8[8:1],7x,{16},{8}4h[8:1],6b,4,
{32}7>3[8:1],6x,{16}5x,{8}3<7[8:1],{4}7b,2pp6[4:1],{8}2b,7,
8>4[8:1],4h[8:1],{4}8b,2v5[8:1],2b,
{32}8>4[8:1],7x,{16}6x,{8}4xh[8:1],{4}8b,{32}4p8[8:1],3x,{16}2x,{8}8xh[8:1],{32}4b,{16},,,{32}1x,
2>6[8:1],3x,{16},{8}7h[8:1],2b,{32}7,{16},{32}4x,3q1[32:5],2x,{16},{8}5h[8:1],3b,5,
{32}2<6[8:1],3x,{16}4x,{8}6>2[8:1],{4}2b,7qq3[4:1],{8}7b,2,
1<5[8:1],5h[8:1],{4}1b,2v5[8:1],2b,
{8}4/7pp1>3-7[2:1],6h[4:1],{4},{8}7qq5>3[16:5],6h[4:1],{4},{8}7,
6h[8:3],,Cf,{24}E7,B7,B8,B1,B2,E3,{8}3xh[8:1],B4,
5/2qq8<6-2[2:1],3h[4:1],{4},{8}2pp4<6[16:5],3h[4:1],{4},{8}2,
3h[8:3],,Cf,{24}E3,B2,B1,B8,B7,E7,{8}6xh[8:1],C,
7h[4:1],{24}B8,B7,,{8}1h[4:1],{24}B8,B7,,{8}6h[4:1],{24}B8,B7,B6,{8}5xh[8:1],7h[8:1],
1h[2:1],{24}B6,B7,B8,B1,B2,B3,B4,B5,B6,{8}7xh[4:1],{24}B1,B2,B3,{8}4xh[8:1],C,
2h[4:1],{24}B1,B2,,{8}8h[4:1],{24}B1,B2,,{8}3h[4:1],{24}B1,B2,B3,{8}4xh[8:1],2h[8:1],
8h[2:1],{24}B3,B2,B1,B8,B7,B6,B5,B4,B3,{8}2xh[4:1],{24}B8,B7,B6,{8}5xh[8:1],C,
{4}6b/3b,2bv5b[12:1]/7bv4b[12:1],{24}2bx/7bx,Cf,{8},{24}3x/5x,{12}3/5,{24}2x/6x,2/6,,7x,
{4}1/8<4[8:1],{32}8/1,{16},,,{32}3x,2xq2[16:3],1x,{16},,,{8}7/2x>6[8:1]*>4[16:1],6<2[8:1]*<8[16:1],
B2,C,6xp4[16:3],B2,{24}6/C,{6},{24}2x,{12}2,{24}3x/7x,7/3,,4x/6x,
{4}6/4>8[8:1],{32}4/5,{16},,,{32}7x,6xq6[16:3],5x,{16},,,{8}3/6x<2[8:1]*<8[16:1],2>6[8:1]*>4[16:1],
B6,C,2xq4[16:3],7,{24}2,{6},{24}6x,{12}6,{24}3x/7x,7/3,,2x,
{4}1/8<4[8:1],{24}8/B5,B4,B3,B2,B1,B8,{8}5<1[8:1],C,{24}B8,B1,B2,B3,B4,B5,
{8}8<4[8:1]*<6[16:1],4>8[8:1]*>2[16:1],8v5[8:1],2x,{32}4x,{16},,,{32}2x,3>7[8:1],4x,{16},{8}7<3[8:1],
{4}3,8<4[8:1],8/2V46[8:1],{8}7/2,8,
{24}8b,7,6,1x,2,3,1x,8,7,2x,3,4,{32}1x/5,8,7,6,4x,3,2,1,{48}7x/8,6x,5x,3x,2x,1x,7/8,6x,5x,3x,2x,1x,
{4}7h[16:5]/8<6-4[8:1],{12}8,,{24}7/3x,2,{4}8h[16:5]/1<7-5[8:1],{12}1,,{24}8/4x,3,
{4}1h[4:1]/2>5[12:1],{8}2,8h[16:1],{32}4x/8,3,{16}2,{8}7h[16:1],{32}3x/7,2,{16}1,{8}6h[16:1],
{4}7h[16:5]/8<6-4[8:1],{12}8,,{24}7/3x,2,{4}8h[16:5]/1<7-5[8:1],{12}1,,{24}8/4x,3,
{4}1/2<8-5[16:3],2/6>4-1[16:3],1<7-5[32:5],4,
2h[16:5]/1>3-5[8:1],{12}1,,{24}2/6x,7,{4}1h[16:5]/8>2-4[8:1],{12}8,,{24}1/5x,6,
{4}8h[4:1]/7<4[12:1],{8}7,1h[16:1],{32}5x/1,6,{16}7,{8}2h[16:1],{32}6x/2,7,{16}8,{8}3h[16:1],
2h[8:1]/1>3-5[8:1],3h[16:3],{4}1,8h[16:5]/2>4-6v3[4:1],2,
7>1-4[16:3],7/3<5-8[16:3],8>3-5[32:5],{32}5h[8:1],{16},,,{32}6x,
7x,8xh[32:27],{16},,,,,,,,,,,,,,,{4}3b/6b,
2bv5b[12:1]/7bv4b[12:1],{32}2bx/7bx,Cf,{48},,,,,,,{24}5x/3x,{12}5/3,{24}6x/2x,6/2,,7x,
{32}8/1p4[8:1],2,{16}3h[16:3],{8},{32}1,{16},,,{32}3x,2xq2b[16:3],1x,{16},,,{8}2/6,7,
{32}8b,7,{16}6,{32}4xp8[8:1],3,{16}2,{32}8x>3b[32:3],7,{16}6,{8},{32}7b,6,{16}5,{12},{24}6x/4x,{12}4/6,{24}7x/3x,3/7,,2x,
{32}1/8q5[8:1],7,{16}6h[16:3],{8},{32}8,{16},,,{32}6x,7xp7b[16:3],8x,{16},,,{8}7/3,2,
{32}1b,2,{16}3,{32}5xq1[8:1],6,{16}7,{32}1x<6b[32:3],2,{16}3,{8},{32}2b,3,{16}4,{12},{24}5x/3x,{12}5/3,{24}2x/6x,6/2,,7x,
{32}1/8<4[8:1],2,{16}3h[16:3],{8},{32}8,2xh,1xh,8xh,7x>1-3[8:1],6xh,5xh,4xh,{4}3xv8[8:1],{8}4xh[12:1],3xh[12:1],
{32}2b,3,{16}4,{32}6,7,{16}8,{32}2x-4-1b[8:1],3,{16}4,{32}6,7,{16}8,{32},,,,,,,7x,6<2[8:1],5x,{16},{8}2>6[8:1],
{4}6,1>5[8:1],1/7V53[8:1],{8}2/7,1,
{24}1b,2,3,8x,7,6,2x<7[8:1],3,4,7x>2[8:1],6,5,{8}2>5[8:1],5xh[12:1],6xh[12:1],7xh[12:1],
{32}1x/8xq5[8:1],7,{16}6h[16:3],{8}1b,8,{32}6b,{16},{32}6x,7xp7b[16:3],8x,{16},{8}1b,7/2,3b,
{32}6x,5,{16}4,{32}2b,1,{16}8,{32}6w2[12:1],5,{16}4,{32}2b,1,8,7,{24}6,B3/B1/B2f/C,{8},{24}2x,{12}8x,{24}3x,7,,6x,
{32}4q1[8:1],3,{16}2h[16:3],{8}5b,4,{32}2b,{16},{32}2x,3p3b[16:3],4x,{16},{8}5b,3/6,7b,
{32}2x,1,{16}8,{32}6b,5,{16}4,{32}2,1,{16}8,{32}6b,5,{16}4,{32}2-5-7[32:5],1,8,7,{8}6h[8:1],2,3xh[16:1],
{32}1x/8x<4[8:1],2,{16}3h[16:3],{8},{32}8,2xh,1xh,8xh,7x>1-3b[8:1],6xh,5xh,4xh,{4}3xv8b[8:1],{8}4xh[16:1],3xh[16:1],
{32}2b,3,{16}4,{32}6,7,{16}8,{32}2b-4-1b[8:1],3,{16}4,{32}6,7,{16}8,{32},,,,,,,7x,2x/6x,5xh[32:3],{16},{8}1h[32:3],
{32}2bx/6bx>5-1b[8:1],3/7,{16}8/4h[32:5],{8},{32}3bx,2,{16}1,{8},{32}8bx/2bxv4<7b[4:1],7/3,{16}4/6h[32:5],{8},{32}2bx/7bxV53b[8:1],8,1,2,{8}3h[32:3],
{32}2bx,1,8,7,{8}6,{32}1bx/5bx,2/6,{16}7/3h[32:5],{8},{32}2bx/6bx,1/5,8/4-8b[32:9],7,6,5,4,3,2w6[12:1],1,8,7,6,5,4,3,
{24}2,C/B7/B5/B6f,
E
