&title=スカーレット(Scarlett)
&artist=石橋弘史
&first=1.14
&des=Zeroflies
&lv_5=12+
&inote_5=(38.5){8}3/6>1[4:1],{16}3,2,{8}1<4[4:1],{16}6,5,{8}4>7[4:1],{16}1,8,7,{32},,,,4,4,
{16}4-7[8:1]*-1[8:1],{32}8,8,{4},{16},,{128}6/2h[32:7],7,{64}8,,,{32}1,3,,4,,5h[32:3],,,,,{16}5/8,6/1,
7/2V86[4:1],,,2,{8}6V42[4:1],{16}6,8,{8}2pp6[4:1],{16}1,8,7,{32},,,,7,8,
{16}1<1[4:1],{32}6,6h[32:3],,,,,{16}1,4,,8,8qq3[4:1]*>6[4:1],{32}8,8,,,,,,,,,,,,,,,,,{16}8,
{32}1,1,{8}5qq5[8:1]*pp5[8:1],4/6,{16}5-2[8:1]*-8[8:1],{32},,,,5,6/4,{4},{128}3qq5[4:1],
4,{64}5,,,,,,,,,,,{32}2,6,{8}5<4[4:1],{16}8,7,4q5[4:1],{32},,,,6,5,{16},,,{64},,,{128}8,7,
{16}6<6[4:1],,,3,2/6V42[4:1],2,1,1,2<6[16:3],{32},,,,6<6[4:3],6,,,,,{16}4,5,
4q1[8:1],{32},,,,,,,,,,,,7p2[8:1],8,,,,,,,,,,,,,{16}6,5,
{8}4,{16}4,{32}4,3/5,{8}4<7[8:1]*>1[8:1],6/2,{16}4w8[8:1],{32},,,,5/3,4,{16},,,{64},,,{128}2,3,
{16}4p1[4:1],{32},,,,6,5,{8}4/6>6[4:1],{16}8,7,6<6[4:1],,,2h[32:1],,,,,{8}4q5[4:1],
{16}5,4,5>6[4:1],6,8,8,6V82[8:1],{32},,,,4-8[16:1],4,,,,,,,4,1,
{16}1-5[16:1],{32}4,4,,,,,{8}1/5pp4[4:1],{16}5,4,4qq5[32:7],,,1h[32:1],,,,,2b/7V14[32:7],
{32}1,1,,4,,3,{16}7p4[32:7],3,2,8,5/7>4[32:7],,,6h[32:1],,,,,2b/5V72[32:7],
{32}3,3,,4,,4,{16}5<2[32:7],3,4,5h[32:1],{2}5p2[32:7],
{16}1b/3>6[32:7],{32}8,8,,7,,6,{16}3pp6[32:7],6,5,4,3qq8[32:7],,,3h[32:1],,,,,1b/7>5[32:7]*-1[16:1],
{32}1-3[16:1],1,,5,,1b/5>8[32:7],,,,,,,{16}7h[32:1],7>2[16:3],6,5,4,7/3,4,5,6,
{1}6pp4[4:1]/3qq5[4:1],
E
