&title=StaRt
&artist=Mrs. GREEN APPLE
&first=0
&des=夜北
&lv_5=13
&lv_7=藏
&inote_5=(190){1},
{8},,,,{24},,
{8}8qq5[8:10]/1pp4[8:10],,,,,,,,,,,
{8},,,6b/3b,,2,1,7h[8:1],8,6v1[8:1],
,8>3[8:1],8,4-8[8:1],,45,,7<4[8:1]/1>4[8:1],,7/1,,5,3,7h[8:1],4,5,3,8h[8:1],4,4-2[8:1],,5-1[8:1]/4,,6-8[8:1]/5,,2-4[8:1],,
1-5[8:1],,2-4[8:1],2,7-5[8:1],,8-4[8:1],8,1-5[8:1],,2,,63,72,8/1V35[16:4],,5V71[8:2],
,1V35[8:2],,5V71[8:2],,1,,5,5h[8:2],3,3h[8:2],1,8h[64:1],7,16,5pp8[8:4]/2,,2,,
{16}2,,,,2,,7-5[16:2],,
{8}3,,3,,3-5[8:1]/4-6[8:1],,,,7,,5-3[16:2]/7,,7,,7,2-5[16:3],6,,6,,6,
8b/7b,7b<4[8:1]/8b,,1q6[8:1],,8p3[8:1],,2>5[8:1],,8p3[8:1],,1q6[8:1],,7<4[8:1],,1,,3h[8:2],,5,6h[8:2]/4,,3,5/2h[8:2],,7,8h[8:2]/4,,2,5<8[8:1]/1>4[8:1],,,
,,,2-7[8:1],,3-6[8:1],,2-7[8:1],,3,,8,6,5-2[8:1]/3-5[8:1],,,,1-5[8:1],5-2[8:1],1,,8-5[8:1],5-1[8:1],8,,7,6,8b-3[8:1],1b,7b-4[8:1],6b,2b,2h[8:2],
{16}1,8,7,6,
{8}5/3-1[8:1],2,5-7[8:1],6,4-2[8:1],3,6-8[8:1],7,1,3,5,7,
{12}6,5,4,5pp4[8:10],4,3,4bqq5[16:16],,,,,,,,,,,,,,,,,,
{8}4b/5b,,6b-1[8:1]/3,,6/5-2[8:1],,6/5-8[8:1],,4-1[8:1]/5,,4-7[8:1]/5,,3-8[8:1]/4,,34,5,6>1[16:3],,8-4[8:1]/6,,5<8[13:2],,1-5[8:1],2V48[16:4],2,,8-4[8:1],7V51[16:3],7,,1,3,8v5[8:1]/4v1[8:1],,8b/4b,,6h[8:1]/2h[8:1],,8h[8:1]/4h[8:1],,21,3,45,6,7/8h[8:1],5,8/1h[8:1],5,1/2h[8:1],4h[8:1],3,5,6/2qq4[8:4],6pp4[8:3]/2,,,,,,,62,3,45,6,78,61,5h[16:16]/2,
{32},,,,1b,2,3,4,,,,,1b,8,7,6,,,,,1b,2,3,4,,,,,1b,8,7,6,,,,,
{8}5b/1,2,7b/3,8,1b/2,83,7b/4h[16:16],,
{32}8b,7,6,5,,,,,8b,1,2,3,,,,,8b,7,6,5,,,,,8b,1,2,3,,,,,
{8}8b/4,7,6b/3,2,
{12}3b,4,5,4b,5,6,
{8}5b<8[8:2],,8-4[8:2],,4>1[8:2],,1-5[8:2],,5<8[8:2],,8-4[8:2],,4,,8,3,
2bq6[10:1]/1b,,1p5[10:1]/2b,,1b/2q6[10:1],,8p4[10:1]/2b,,8b/1q5[10:1],,7p3[10:1]/1b,,
8q4[8:1]/7b,,7/8b,,
{32}8b/1b,7b/2b,6b/3b,4bqq1[8:3]/5bpp8[8:3],,,,,,,,,,,,,,,,,,,,,,,,,,,,,
{8}
57,6,54,3,2-6[8:1],1-5[8:1],2,1,4,6,5-1[8:1]/7<4[8:1],,5b/7b,,2/8pp3[16:5],,78,6,5,4-8[8:1],2>5[8:1],4,2,7,4qq3[8:1]/6pp7[8:1],,4b/6b,,4,35,
2>5[8:1],,6>3[8:1],,3<7[8:1],,7<4[8:1],,3<6[8:1],,6>2[8:1],,2>6[8:1],,7<4[8:1],,4,,
2-4[8:1],1-5[8:1],2,1,8-4[8:1],7-5[8:1],8,7,2,2h[8:2],6,4,3,3h[8:2],7,5,
42,3,45,6,7-3[8:1],8-4[8:1],7,8,5,3,4/2V48[8:2],,8V62[8:2]/2,,1b,,
8-4[8:1],1-3[8:1],8,1,7-5[8:1],8-4[8:1],7-3[8:1],8,7b,,4-8[8:1]/2-5[8:1],,4b/2b,,
7/1b>5[4:1],,5b<1[16:5],,8b>5[16:5],,4b<1[16:6],,
{8}7b>5[16:6],,3b<1[16:7],,6b<5[16:7],,2b>1[16:8],,
{8}5b<5[16:8],,1b>1[16:8],,4b<3[16:7],,8b>7[16:8],,
{8}3b<3[16:9],,7b,,4b,,6,6,2,2,
{24}7b/1b,6b/2b,5h[48:32]/3h[48:32],,,,,,,,,,,,,,,,,,,,,,
{8}6h[8:2],,5h[8:2],,4h[8:2],,3h[8:2],,4h[8:2],,5h[8:2],,6,,6bpp4[8:4]/3bqq5[8:4],,
&inote_6=(190){1},
{8},,,,{24},,
{8}5pp8[8:10]/4qq1[8:10],,,,,,,,,,,
{8},,,7b/2b,,57,6,45,3,2h[8:2]/1,,3,5,6/4-8[8:1],,7,,6-1[8:1]/1-5[8:1],,61,,4,3,6,7,3h[8:2],1,7h[8:2],5,4-2[8:1],,5-1[8:1]/4,,6-8[8:1]/5,,2-4[8:1],,1-5[8:1],,2-4[8:1],2,7-5[8:1],,8-4[8:1],8,1-5[8:1],,3h[8:2],,6,7,4,3,1-5[8:1],2-4[8:1],1,2,1-7[8:1],2-6[8:1],1,2,8,8h[8:2],6,6h[8:2],4,4h[8:1],2,83,4qq1[8:4]/7,,7,,
{16}7,,,,7,,2-4[16:2],,
{8}6,,6,,6-4[8:1]/5-3[8:1],,,,2,,4-6[16:2]/2,,2,,2,7-4[16:3],3,,3,,3,4qq3[17:4]/5pp6[17:4],45,,,,54,6,4/7<4[8:1],,3<6[8:1],,6>2[8:1],,2>5[8:1],,6,7,7-3[8:1],,3,1-5[8:1],,4,6-2[8:1],,2,8-4[8:1],,3,5w1[8:1],,5b,,,,2-7[8:1],2,3-6[8:1],3,2-7[8:1],2,3-6[8:1],3,8,1,2,7,83,4,5/7V53[16:3],8,4,2V46[16:3],1,5,7,8,4,3,21,83,2-5[8:1]/1-6[8:1],83,2b/1b,,74,,4h[8:1]/6,8,5h[8:1]/3,1,28,3,54,6,
7/8h[8:1],5,1h[8:1]/2,4,
{12}7,5,6,2,4,3,5pp8[8:5],,,,,,
{8},,4qq4[8:3],,,,,,
{32}5b,,,,62,,,,
{8}7b-5[8:1]/8b-4[8:1],,78,,8-5[8:1]/1-4[8:1],,81,,1-5[8:1]/2-4[8:1],,21,,6h[8:1],4,2>5[10:1]/5<8[10:1],,52,,1>4[8:1],73,5-1[8:1]/1,7-4[8:1],5,7,2,3<6[8:1],6<1[8:1],8>3[8:1],2,4-8[16:3],5-1[8:1],,,,
2b<7[16:2],,6-1[16:2],,8>3[8:1],8,5-1[8:1],5,2>5[8:1],,8-4[8:1],8,6>3[8:1],,2b,8,6-1[8:1]/1-4[8:1],,1-5[8:1],,1<6[8:1]/4>1[8:1],,41,,5,64,3,52,61,7b/8b,
7bp3[10:1]/8b,,8q4[10:1]/7,,8/7p3[10:1],,1q5[10:1]/7,,1/8p4[10:1],,2q6[10:1]/8,,
1p5[8:1]/2,,2q6[8:1]/1,,8p4[8:1]/2,,1q5[8:1]/8,,7p3[8:1]/1,,7/8q4[8:1],,7p3[8:1]/8,,7/1q5[8:1],,8p4[8:1]/1,,8/2q6[8:1],,2b/1,,
{16}7b,5,6,4,5,3,4,2,
8b,5,7,4,6,3,5,2,4b>1[8:1],,1-5[8:1],,5<8[8:1],,8-4[8:1],,3
{8}3h[8:3],,,2,
2-4[8:1]/1b-5[8:1],,2bV48[8:1]/1,
{32},,,8-4[32:5],7b-5[8:1],,,,,,,,7bV51[8:1],,,,,,,1-5[32:5],2b-4[8:1],,,,,,,,2b,,,,,,,,
{8}7b/3b,84,5b>2[8:1]/1b<6[8:1],,5b/1b-5[8:3],,,,,,63,,
{8}42,3,45,6,7-3[8:1],8-4[8:1],7,8,5,3,4-8[8:1]/2-5[8:1],,4b/2b,,7/1qq6[16:5],,21,3,4,5-1[8:1],7-4[8:1],5,7,2,5pp6[8:1]/3qq2[8:1],,5b/3b,,5,64,
7-3[8:1],,8-4[8:1],,1-5[8:1],,2-6[8:1],,1-5[8:1],,8-4[8:1],,7-3[8:1],,8-4[8:1],,1,,7<4[8:1],5,3,2,1>4[8:1],3,5,6,
7-5[8:1],8-4[8:1],7,8,1-5[8:1],2-4[8:1],1,2,6,57,8,21,8<5[8:1]/3,,4,2,1-5[8:1],,51,,7b<4[8:1]/4>1[8:1],,74,,8-3[8:1],4,6,7,1-6[8:1],5,3,2,5-7[8:1]/8-4[8:1],,58,,3,72,8/1b>5[4:1],,5b<1[16:5],,8b>5[16:5],,4b<1[16:6],,
{8}7b>5[16:6],,3b<1[16:7],,6b<5[16:7],,2b>1[16:8],,
{8}5b<5[16:8],,1b>1[16:8],,4b<3[16:7],,8b>7[16:8],,
{8}3b<3[16:9],,7b,,4b,,6,6,2,2,
{24}7b/1b,6b/2b,5h[48:32]/3h[48:32],,,,,,,,,,,,,,,,,,,,,,
{8}6h[8:2],,5h[8:2],,4h[8:2],,3h[8:2],,4h[8:2],,5h[8:2],,6,,6bpp4[8:4]/3bqq5[8:4],,
&inote_7=(190){1},
{8},,,,{24},,
{8}5pp8[8:10]/4qq1[8:10],,,,,,,,,,,
{8},,,7b/2b,,57,6,45,3,2h[8:2]/1,,3,5,6/4-8[8:1],,7,,6-1[8:1]/1-5[8:1],,61,,4,3,6,7,3h[8:2],1,7h[8:2],5,4-2[8:1],,5-1[8:1]/4,,6-8[8:1]/5,,2-4[8:1],,1-5[8:1],,2-4[8:1],2,7-5[8:1],,8-4[8:1],8,1-5[8:1],,3h[8:2],,6,7,4,3,1-5[8:1],2-4[8:1],1,2,1-7[8:1],2-6[8:1],1,2,8,8h[8:2],6,6h[8:2],4,4h[8:1],2,83,4qq1[8:4]/7,,7,,
{16}7,,,,7,,2-4[16:2],,
{8}6,,6,,6-4[8:1]/5-3[8:1],,,,2,,4-6[16:2]/2,,2,,2,7-4[16:3],3,,3,,3,4qq3[17:4]/5pp6[17:4],45,,,,54,6,4/7<4[8:1],,3<6[8:1],,6>2[8:1],,2>5[8:1],,6,7,7-3[8:1],,3,1-5[8:1],,4,6-2[8:1],,2,8-4[8:1],,3,5w1[8:1],,5b,,,,2-7[8:1],2,3-6[8:1],3,2-7[8:1],2,3-6[8:1],3,8,1,2,7,83,4,5/7V53[16:3],8,4,2V46[16:3],1,5,7,8,4,3,21,83,2-5[8:1]/1-6[8:1],83,2b/1b,,74,,4h[8:1]/6,8,5h[8:1]/3,1,28,3,54,6,
7/8h[8:1],5,1h[8:1]/2,4,
{12}7,5,6,2,4,3,5pp8[8:5],,,,,,
{8},,4qq4[8:3],,,,,,
{32}5b,,,,62,,,,
{8}7b-5[8:1]/8b-4[8:1],,78,,8-5[8:1]/1-4[8:1],,81,,1-5[8:1]/2-4[8:1],,21,,6h[8:1],4,2>5[10:1]/5<8[10:1],,52,,1>4[8:1],73,5-1[8:1]/1,7-4[8:1],5,7,2,3<6[8:1],6<1[8:1],8>3[8:1],2,4-8[16:3],5-1[8:1],,,,
2b<7[16:2],,6-1[16:2],,8>3[8:1],8,5-1[8:1],5,2>5[8:1],,8-4[8:1],8,6>3[8:1],,2b,8,6-1[8:1]/1-4[8:1],,1-5[8:1],,1<6[8:1]/4>1[8:1],,41,,5,64,3,52,61,7b/8b,
7bp3[10:1]/8b,,8q4[10:1]/7,,8/7p3[10:1],,1q5[10:1]/7,,1/8p4[10:1],,2q6[10:1]/8,,
1p5[8:1]/2,,2q6[8:1]/1,,8p4[8:1]/2,,1q5[8:1]/8,,7p3[8:1]/1,,7/8q4[8:1],,7p3[8:1]/8,,7/1q5[8:1],,8p4[8:1]/1,,8/2q6[8:1],,2b/1,,
{16}7b,5,6,4,5,3,4,2,
8b,5,7,4,6,3,5,2,4b>1[8:1],,1-5[8:1],,5<8[8:1],,8-4[8:1],,3
{8}3h[8:3],,,2,
2-4[8:1]/1b-5[8:1],,2bV48[8:1]/1,
{32},,,8-4[32:5],7b-5[8:1],,,,,,,,7bV51[8:1],,,,,,,1-5[32:5],2b-4[8:1],,,,,,,,2b,,,,,,,,
{8}7b/3b,84,5b>2[8:1]/1b<6[8:1],,5b/1b-5[8:3],,,,,,63,,
{8}42,3,45,6,7-3[8:1],8-4[8:1],7,8,5,3,4-8[8:1]/2-5[8:1],,4b/2b,,7/1qq6[16:5],,21,3,4,5-1[8:1],7-4[8:1],5,7,2,5pp6[8:1]/3qq2[8:1],,5b/3b,,5,64,
7-3[8:1],,8-4[8:1],,1-5[8:1],,2-6[8:1],,1-5[8:1],,8-4[8:1],,7-3[8:1],,8-4[8:1],,1,,7<4[8:1],5,3,2,1>4[8:1],3,5,6,
7-5[8:1],8-4[8:1],7,8,1-5[8:1],2-4[8:1],1,2,6,57,8,21,8<5[8:1]/3,,4,2,1-5[8:1],,51,,7b<4[8:1]/4>1[8:1],,74,,8-3[8:1],4,6,7,1-6[8:1],5,3,2,5-7[8:1]/8-4[8:1],,58,,3,72,8/1b>5[4:1],,5b<1[16:5],,8b>5[16:5],,4b<1[16:6],,
{8}7b>5[16:6],,3b<1[16:7],,6b<5[16:7],,2b>1[16:8],,
{8}5b<5[16:8],,1b>1[16:8],,4b<3[16:7],,8b>7[16:8],,
{8}3b<3[16:9],,7b,,4b,,6,6,2,2,
{24}7b/1b,6b/2b,5h[48:32]/3h[48:32],,,,,,,,,,,,,,,,,,,,,,
{8}6h[8:2],,5h[8:2],,4h[8:2],,3h[8:2],,4h[8:2],,5h[8:2],,6,,6bpp4[8:4]/3bqq5[8:4],,
