&title=Cathedral
&artist=Sta feat.Ice
&first=4.899
&lv_5=14
&des_5=altostratus
&inote_5=
(201.3){4}4>7-5[1:1],,,,{1}5-1-3-7[4:3],
{4}5,5,5,6/4,
1,1,1,2/8,
5<2-4[1:1],4,4,5,
4-8-6-2[4:3],2,3,4,
4h[8:1],5/2h[8:1],8h[8:1],1/6h[8:1],
4-6[8:1],4-7[8:1],4-8[8:1],4,
1-5[4:1],5-2[8:1],7-3[8:1],1h[4:1],
8-4[4:1],4-7[8:1],2-6[8:1],8h[4:1],
1q5[4:1],5>2[8:1],7p3[8:1],1h[4:1],
8p4[4:1],4<7[8:1],2q6[8:1],8h[4:1],
1-6[4:1],6>3[8:1],1<6[8:1],2h[4:1],
8-3[4:1],3<6[8:1],8>3[8:1],7h[4:1],
{8}8-4[8:1],2,2,2,1-5[8:1],6,{4}6-8-2<6[2:1],
2h[8:1],6h[8:1],E2/E3/A2f,{16}1,2,3,4,
{4}5/1bV74[4:1],{8}5,3,{4}1x-6[8:1],4,
4/8V25[4:1],{8}4,6,{4}8x-3[8:1],5,
{2}1-5[8:1]/5-2[8:1],8x-4[8:1]/4x-7[8:1],
{8}8-4[8:1]/1-5[8:1],8/1,{4}8/1,B8/A8/D1/A1/B1/E1,2-6[4:1],
6-4-1[4:1],1-5[8:1]*-3[8:1],A1,7-3[4:1],
3-5-8[4:1],8-6[8:1]*-4[8:1],A8,1-3v2[8:3],
{8}5,5,{4}5-7v6[8:3],{8}1x,1,{4}1-3[8:1]*-7[8:1],
{2}1v6[8:1]*v4[8:1],{4}D1/D2/A2/A8/E3/E8,7v2-4-8-5[8:5],
2b,1-4[8:1],1x,2v7-5-1-4[8:5],
7,8-5[8:1],8x,2-4[8:1],
2/6,2/6-8[8:1],6x/2x,2-5[8:1]/6-1[8:1],
2<7[8:1]/6>3[8:1],6/2,B2/A2/A6/B6,3>4[16:7],
{2}3h[4:1],{4}3x/E2/A1/D2,6<5[16:7],
{2}6h[4:1],{4}6x/E8/A8/D8,1-7v6[8:3]*-3v4[8:3],
{2},{4}B2/A2/B8/A8,7-3[8:1],
2-6[8:1],8-4[8:1],A1/E2/E3/A3,{16}A5,E6,E7,A7,
{1}8b<6-3p5-2<8[2:3],
,{32}D7,
E7,B6,E6,B5,E5,B4,E4,{8}D4,5xh[8:1]/2xh[8:1],,{32}D3,E3,B2,B1,E1,D1,{16},,,{32}A8,
E8,B7,E7,B6,E6,D6,A5,A1,E2,B2,E3,B3,E4,D4,A4,{2}8x-4[8:1],
{1}1>3-6q4-7>1[2:3],
,{8}6,
5,2/4,3,8/4,7,{4}6>3q1[2:1]/2<7q5[2:1],
,,,{16}1,8,7,6,
{1}1b/5<7-2q8-3<5[2:3],
,{32}D7,
E7,B7,E8,B8,E1,B1,E2,{8}D2,8xh[8:1]/3xh[8:1],,{32}D3,E3,B3,B4,E5,D5,{16},,,{32}A5,
E6,B6,E7,B7,E8,D8,A8,A4,E4,B3,E3,B2,E2,D2,A1,{4}5xq2[4:1],2<3[8:5],
{2}3h[4:1],{4}7x,7>6[8:5],
{2}6h[4:1],{4}2x,2,
{8}2/4,3,4,5/3,4,5,6/4,5,
6,7-4>8b[2:1]/5-3>8[2:1],{4},,,{16}A2,
E3,E4,A4,D1,B8,B6,D6,D2,B2,B4,D5,A8,E8,E7,A6,
A1,E2,E3,A3,D8,B7,B5,D5,D1,B1,B3,D4,A7,E7,E6,A5,
A4,E4,E3,A2,D6,B6,B8,D1,D5,B4,B2,D2,A6,E7,E8,A8,
A3,E3,E2,A1,D5,B5,B7,D8,D4,B3,B1,D1,A5,E6,E7,A7,
8,1,2,3,5,6,7,8,2,3,4,5,7,8,1,2,
5,4,3,2,8,7,6,5,3,2,1,8,6,5,4,3,
1,2,3,4,5,6,7,8,1,2,3,4,5,6,7,8,
{1}1h[4:3]/5bh[4:3],
4>2-7p1-6>4[2:3],
,{32}D3,
E3,B2,E2,B1,E1,B8,E8,{8}D8,1xh[8:1]/6xh[8:1],,{32}D7,E7,B6,B5,E5,D5,{16},,,{32}A4,
E4,B3,E3,B2,E2,D2,A1,A5,E6,B6,E7,B7,E8,D8,A8,{2}4x-6b[8:1]*-2b[8:1],
{4}1-6<2[2:1],6h[2:1],{2},{4}5-2>6[2:1],
2h[8:3],,1-4b[8:1],
{8}1b/5,7-4b[8:1],,7b/4,{4}2-5b[8:1],{8}2b/6,8-5b[8:1],
,5/8b,{4}3h[4:1],{8}2,1/3,3/8,7/3,
6b/3b,2/7,4/5,8-4[8:1]/1-3[8:1],,8-6[8:1]/1-5[8:1],,8/1,
,8/1,2,8/1,7,1/8,7/2,6/3,
7b/4b,3/8,5/6,1-5[8:1]/2-4[8:1],,1-7[8:1]/2-6[8:1],,1/2,
,1/2,3,1/2,8,2/1,8/3,7/4,
5b/2b,1/6,3/4,7-3[8:1]/8-2[8:1],,7-5[8:1]/8-4[8:1],,7/8,
,7/8,1,7/8,6,8/7,6/1,5/2,
{4}4b/3h[8:1],4/5h[8:1],4/2h[8:1],4/6h[8:1],
4/1h[8:1],4/7h[8:1],8h[8:1]/4<7[16:3],{16}8/4,1,2,3,
{4}4b/8bV64[4:1],{8}3,2,{4}1-5-3[4:1],6,
2V86[4:1],{8}5,4,{4}3-7-1[4:1],6,
{8}4-2[8:1],5,4/6-8[8:1],5,{4}6/4-6-2[4:1],{8}1,8,
{4}7-2[8:1],3-7[8:1],6-3[8:1],1,
5x/1xV35[4:1],{8}6,7,{4}8-4-6[4:1],3,
7V13[4:1],{8}4,5,{4}6-2-8[4:1],3,
{8}5-7[8:1],4,5/3-1[8:1],4,{4}3/5-3-7[4:1],{8}8,1,
{4}2-4[8:1],{8}6,7-5[8:1]*-1[8:1],{2},{4}3-1[8:1],
6-2[4:1],2<7[8:1],4h[4:1],
6-8[8:1],3-7[4:1],7>2[8:1],5h[4:1],
{8}4v1[8:1],5,4>2[8:1],5,{4}4<1[4:1],1-6-4-7[8:3],
3h[8:1],8-3-5-2[8:3],6h[8:1],1,
6b-8[8:1],3-7[4:1],7>2[8:1],5h[4:1],
3-1[8:1],6-2[4:1],2<7[8:1],4h[4:1],
{8}5v8[8:1],4,5<7[8:1],4,{4}5>8[4:1],8-3-5-2[8:3],
6h[8:1],1-6-4-7[8:3],3h[8:1],8,
4b/8bV64[4:1],{8}3,2,{4}1-5-3[4:1],6,
2V86[4:1],{8}5,4,{4}3-7-1[4:1],6,
{8}4-2[8:1],5,4/6-8[8:1],5,{4}6/4-6-2[4:1],{8}1,8-4[8:1],
,4,{4}3-1[8:1]*-5[8:1],{2}3-7[8:1],
{4}5x/1xV35[4:1],{8}6,7,{4}8-4-6[4:1],3,
7V13[4:1],{8}4,5,{4}6-2-8[4:1],3,
{8}5-7[8:1],4,5/3-1[8:1],4,{4}3/5-3-7[4:1],{8}8,1,
{4}2-4[8:1],{8}6,7-1[8:1]*-5[8:1],{2},{4}3-1[8:1],
6-2[4:1],2<7[8:1],4h[4:1],
6-8[8:1],3-7[4:1],7>2[8:1],5h[4:1],
{8}4v1[8:1],5,4>2[8:1],5,{4}4<1[4:1],1-6-4-7[8:3],
3h[8:1],8-3-5-2[8:3],6h[8:1],1,
6b-8[8:1],3-7[4:1],7>2[8:1],5h[4:1],
3-1[8:1],6-2[4:1],2<7[8:1],4h[4:1],
{8}5v8[8:1],4,5<7[8:1],4,{4}5>8[4:1],8-3-5-2[8:3],
6h[8:1],1-6-4-7[8:3],3h[8:1],8,
{12}E2/D2,C,E6,A8/E8,E7,A6,E3/A2,E4,A4,E1/D1,C,E5,
E8/D8,C,E4,E7/A7,E6,A5,E2/A1,E3,A3,{96}8,{48},{96}7,{48},{32}6,5,4,3,2,1,
{8}8/4b,{16}5,7,{8}5,4/8,{16}1,3,{8}1,8/4,6/2,
1/5,{16}4,2,{8}4,5/1,{16}8,6,{8}8,1/5,3/7,
{12}E8/D8,C,E4,A1/E2,E3,A3,E7/A7,E6,A5,E1/D1,C,E5,
E2/D2,C,E6,E3/A2,E4,A4,E8/A8,E7,A6,{96}1,{48},{96}2,{48},{32}3,4,5,6,7,8,
{8}1/5b,{16}4,2,{8}4,5/1,{16}8,6,{8}8,1/5,3/7,
8/4,{16}5,7,{8}5,4/8,{16}1,3,{8}1,8/4,6/2,
{2}1-7q5v2-4[4:3],C/B6,
5-3q1<6[8:5],C/B2,
{8}2b,{16}6,5,{8}4,2/8,{16}4,5,{8}6,2/8,2,
7x,{16}3,4,{8}5,7/1,{16}5,4,{8}3,7/1,7,
{2}8-2pp7[4:3],B4/B3/E4,
1-7qq2[4:3],B5/B6/E6,
{1}Cf,
E
