&title=sense of wonder
&artist=Yu_Asahina
&first=-0.05
&des=Polo with. Pockyyyy
&lv_5=14+
&inote_5=(178){4},,,,,,1pp5[2:3],,{16},,6,,,7,,,7,,,8,,,8,,,,,,7,,,,8V26[2:3],,,,,,2,,,,,,,,3,,3,,4,,4,,3,,3,,,2,,,2,,1>5[4:5],,,,,,,,,,,,,,8x,7x,6x,,,,,,6,,7,,8,,7,,7,,{8}4h[2:3]/7,7,,6,6,,5,5,,3,3,,6,{8},2/6,,{16}E1,B1,B2,E3,E7,B6,B5,E5,E4,B3,B2,E2,E8,B7,B6,E6,{24}3x,2,1,8,7,6x,3,2,1,8,7,6,{16}4,5,3,6,2,7,1,,
{32}2x,B2,,,{16}6,4,{32}6x,B6,,,{16}3,5,{32}3x,B3,,,{16}7,4,{32}7x,B7,,,{16}2,5,2h[4:1],,6,,8,,1,8,2-6[8:1],,7,,2,,,,{8}8h[1:2],,B1,B2,,,B3,B4,,,,,,,,,2h[1:2],B1,B8,B7,,B6,B5,B4,,,C,,,,,,{8}B8,B7,B6,B5,B4,B3,B2,1x>6[1:2],,,,,,,,,8h[1:1],,,,,,,,,,,,Cf,,,,
6h[4:1]/4-1[4:1],,,,8,,{8},7,,7-3[4:1],,,1,,,2,2-6[4:1],,,,8,,,7-3[4:1],,,2,,1,2,,2,3>8[2:1]/5,,5,,5,,5,,6<1[2:1]/4,,4,,4,,4qq2[8:3]qq8[8:3]qq6[8:3]qq4[8:3],,{2},,,{16},,,,,,7,5,6-1[6:1],,,,2,,3-8[6:1],,,,5,,6,,,,1/7<4[6:1],,,,2,,3,,,,3,,2,,5,5,3-8[6:1],,,,7,,6-1[6:1],,,,4,,3,,,,8/2>5[6:1],,,,7,,6,,,,6,,7,,4,,7-4[6:1],,,,3,,2-5[6:1],,,,8,,7,,,,4/6<1[6:1],,,,3,,2,,,,2,,3,,8,8,2-5[6:1],,,,6,,7-4[6:1],,,,1,,2,,,,5/3>8[6:1],,,,6,,7,,,,7,,6,,1,,5h[4:1],,,,{12}2,3,4,8,7,6,1,2,3,7,5,6,2,4,3,8,6,7,1,3,2,{8}8<5[6:1],,3,2pp5[2:1],,,{32}E7,B7,B8,,{8},1xh[4:1],,,,8h[4:1],,,,{8}1/7
,1,7/2,2,7/3,3,7/4,4,6/4,{16}4,5,4,5,{24}4x,3x,2x,{16}5,4,5,4,{24}5x,6x,7x,{16}4,5,4bxh[4:1],,,,,,3h[8:1]/5h[8:1],,,,,,2bxh[4:1]/6bxh[4:1],,,,,,1h[8:1]/7h[8:1],,,,,,8-4[8:1],,,,,,,,
{16}3/5,,5,,B3/E3,,6,4,7,5,6h[8:1],,B4/E5,,6,,6/4,,4,,B6/E7,,3,5,2,4,3h[8:1],,B5/E5,,3,,2/8,,8,,B2/E3,,7,1,6,8,7h[8:1],,B1/E1,,7,,7/1,,1,,B7/E7,,2,8,3,1,2h[8:1],,B8/E1,,2,,2q6[6:1],,,,7,8,1h[4:1],,,,,,3,,,,3/5,,6,,2/5,,2,4,3,5,4,,7/5,,6,4,5-1[8:1],,3,,5,,,,2v4[6:1]/8v6[6:1],3/7,4/6,,,,,,,,{8}5x-3[8:1],5x-8[8:1],5-2[8:1],5-7[8:1],5-1[8:1],5<4[2:1],5,5,,,,
{16}E8,B8,B1,,B7,,B4,,{8}6xh[8:1],5,4h[8:1],7,6h[8:1],3,3h[8:1],4>7[3:1],4,,,,{16}4,3,{8}2,5,5,4,4h[8:1],3,3h[8:1],2,2h[8:1],1,1h[8:1],8z4[4:1],,,,5x,6x,7x,6x,1,2,3,4,5,6,7,8,{16}1,8,1,8,1q5[6:1],,6h[4:1],,,,,,{32}E7,E8,E1,,{8},2x-5[8:1],,2/6-1[8:1],,6/4w8[8:1],,4,,
7x-5[8:1],4,7,3,2-4[8:1],5,2,6,7<4[8:1],,{16}3,2,1h[4:1],,,,{8}4,5,6,6-1[8:1],1-5[8:1],6,2,3,4-2[8:1],4-6[8:1],4,,,2,3h[4:1]/5,,8,7,6,5h[4:1],,2,6/1h[4:1],,{16}6,6,1,2,3,4,8,7,6,5,2,3,4,5,{8}8,7,3,2,6z2[4:1],,4,3h[4:1],,,{32}8,3,,,{8}7,2/6,{16}3,5,{8}4,6,7/3,{16}6,4,{8}5,3,3/5,{16}2-5[8:1],4,3,,2/6,,,,8,,1-4[8:1]/7,,,,5/1,,{16}6,5,7,,4,5,4,3,4,,3/5,,,,{8}6/4,{16}6-1[8:1],5,7,,6/4,,,,2,,3/8h[4:1],,,,3,,{16}7,7,2,2,6,6,3,3,5,5,{8}4,4x,5q1[4:1],,1q5[4:1],1,,4,4,,3-8[8:1],,3/4<7[6:1],,{16}4,3,2,1,8,,2/6,,2h[4:1]/6,,,,{24}4,3,5,4,,,5,4,6,5h[4:1],,,{8},8b,,7,7,3,3h[16:3],{16},6h[16:3],,,4,,
{16}2/5,,3,4,3,,1/6,,3,4,3,,7/4,,6,5,6,,8/3,,6,5,6,,8,7,6,5,1,2,3,4,8,,3,4,3,,1,,6,5,6,,1/7,2,3,4,2,3,4,5,6/2,7/3,8/4,1/5,6-3[8:1]/2-7[8:1],,2/6,,,,,,4/6h[4:1],,,,,,1,1,6,,3,,5,,4p8[4:1],,,,,,,,7,6,5h[8:1],,1,6h[8:1],,2,7p5[2:1],,{8}3,3,1,2h[8:1],,3,4qq1[4:3],6,,6,,7,,8h[4:1],,,4/5,{16}6,5,7,,4/5,,3,4,2,,4/6,,6,4,8,,3/5,,3,5,1,,8,7,6,5,8,1,2,3,8,,7,5,6,,1,,2,4,3,,8,7,6,5,1,2,3,4,7,6,5,4,2,1,8,7,{32}5x,4x,3x,2x,1x,8x,7x,6x,{8}5x-1[8:1],,5h[4:1],,,,2/6,{16}3,4,5/6h[4:1],,,,,,{8}1,1,2,3,4,6<1[6:1],,4>1[6:1],4,,5-1[6:1],5,,4-8[6:1],4,,,{16}5,6,7,8,4,3,2,1,{8}5/8v1[8:1],5,5,5,5/2v7[8:1],5,5,5,4/8v1[8:1],4,4,4,4/7v2[8:1],4,4,4,3h[4:1],,,{16}6,6,1,2,3,4,8,7,6,5,3,2,1,8,4,3,2,1,5,4,3,2,6,5,4,3,2p8[2:3]/6p4[2:3],,,,{4},,,,,,{8},{32},,,D6/D5,5x-1[1:1],,,,,,,,,,,,,,,,,,,,,,,,,,,,,,,,,,,,,,,,,,,,,,,,8x/2x,7x/3x,6x/4x,5xpp7[12:1]*qq3[12:1],,,,,{8},,
2x-6[8:1],6x-1[8:1],2,5h[8:1],,6-1[8:1],7,6/5v2[8:1],,6/5,7<4[16:3],,{16}3,2,1,8,3,2,1,8,{8}7v5[8:1]/3v1[8:1],,,,8-6[16:1]>4[16:1],4v7[6:1],8,3h[8:1],,2q5[3:1],1,2,,8,7,6,8-4[8:1],,8V64[4:1]*V24[4:1],,8,,,2-4[8:1]>1[8:1]/6-4[8:1]<7[8:1],,2/6,,,{16}8x,7,6,5,1,8,7,6,{8}8x<5[6:1],,,,2-5[8:1],5V71[4:1],2,7h[4:1],,,,4-2[8:1]^8[12:1]/5-7[8:1]^1[12:1],4/5,,,,{8}1>4[6:1],,,,7-4[8:1],4V28[4:1],7,2h[4:1],,,,7-4[8:1]^5[12:1]/2-5[8:1]^4[12:1],2/7,,,,{4}1q5[4:1],5q1[4:1],1V35[4:1],5V71[4:1],1>5[4:1],5<1[4:1],1,5,{24}5b/1,4,3,2,1,8,4b,3,2,1,8,7,6,5,4,8b,1,2,3,4,5,6/2b,,,,,,{16}3/5,,1,,7,5,6h[8:1],,3,,8,,2,,
3-8[8:1]/4,,2,,3/5,,7,5,6-1[8:1],,4,,6,,4,,6-1[8:1]/5,,7,,6/4,,2,4,3-8[8:1],,5,,3,,5,,4-8[8:1],,3/5,,,,,,1-4[8:1]/7-4[8:1],,8,,1/7,,,,{16}8,7,6,5,1,2,3,4,{24}1,8,7,6,5,4,{32}1,2,3,4,5,6,7,8,{12}1/5h[4:1],,,2,4,1,7,5,8,3,4,1,5,8,8,4,2,2,5,7,7,5,1,1,6h[4:1],,,{16}8,6,8,6,{20}1,5,1,5,1,{16}4,2,4bV68[4:1],,,,{8}2,1,,{16}2,3,4,5,8,7,6,5,{8}1-5[8:1],5pp7[6:1]*qq3[6:1],,,,2-6[8:1]*-5[8:1],1,2,,8-5[8:1]*-3[8:1],1/7,8,,6,6,{16}3,4,{8}1h[2:1],,6,6,5,2/6,3/7,4/8h[4:1],,{16}3,7,{24}4,5,6,7,8,1,2/5,4,3,2,1,8,7/3,4,5,6,7,8,{32}5x/1,2/6,3/7,4/8,1,2,3,4,5/1x,2/6,3/7,4/8,1,2,3,4,{36}5x/1x,6/2,7/3,8/4,1/5,2xq7[8:1]/6xq3[8:1],,,,,,,,,2b/6b,,,,{16},,1,8,1,8,2,7,{24}3,6,3,6,3,6,4,5,4,5,4,5,4-7[8:1]*-1[8:1],,,,,,4b-8b[1:4],,,,,,{4},,,,,,{32}B6,E5,,,{16},,,,B7,,,,,,B4,,,,,,B3,,,,,,B1,
