&title=Amazing Mirage
&artist=Lapix
&first=0
&des=D&K
&lv_5=13
&inote_5=(153)
{1},
{8}
5-1[4:3]/4,,,,,,,,2-5[4:3],,,,,,,,8>3[4:3],,,,,,,,
6-1[8:1],,,,3-8[8:1]/1,,,,
{16}5h[4:1],,,,4,,4,5,,6,5,,8,,8,,1/7,,,,53,,5,4,,3,4,,1,,1,,2/8,,,,
4/6,,4,5,,6,5,,8-4[8:1],,1,,2z6[4:1]/8b,,,,,,,,5,5,4,6,3,5,1,7,
3b-1[8:1],,2,,3/5,,6,,3-8[8:1],,5,5,3,,7,,6-8[8:1],5,6,,3,,2,,
3-5[8:1]/6-1[8:1],,7/4,,3/6,,,,8<5[8:1],,2,,3/8,,2,,1>4[8:1],,7,7,1p6[8:3],,8,,1,,
,,,,,,4/8,,3/7,,2/6,,5/1,,8h[8:1]/4h[8:1],,,1h[8:1]/5h[8:1],,,
2h[8:1]/6h[8:1],,,3h[8:1]/7h[8:1],,,4h[8:1]/8h[8:1],,,1h[8:1]/5h[8:1],,,
2h[8:1]/6h[8:1],,,3h[8:1]/7h[8:1],,,8<4[8:1]/4>8[8:1],,,,,,,,
5,5,4,6,3,7,2,8,8,1,7,2,6,3,5,4,4,5,3,6,2,7,1,8,{32}1w5[8:1],2,3,4,5,6,7,8,{16}
,,,,3b/7b,,2,5,1h[8:1],,7,8,6h[8:1],,5,7,3,,2/4,,3/5,,
6,4,8h[8:1],,2,1,3h[8:1],,4,2,6,,5/7,,1-5[8:1]/8-4[8:1],,2/7,,1/8,,,,
7,8,6-2[8:1],1h[16:3],,,,,4,,3/5,,8,,17,,2-7[8:1]/6-3[8:1],,3/7,,2/6,,,,
1/5,,3,4,3,,7/8,,1/6-2[8:1],2,3-7[8:1],4,6,,3,,8,,5,6,5,7,4,5,
2,4,1,8,2/7,,45,,3>8[8:1],,8-4[8:1],,7,,5,,6<1[8:1],,1-5[8:1],,2,,4,,
3,3,,24,2/4,,7/8,,1-5[8:1]/6-8[8:1],,16,,,,,,
2/4,,1,,7/5,,8,8,,6-2[12:1]/4-8[12:1],,3/7,,4/6,,,4/6,,8,,3/5,,1,1,,
3-8[12:1]/5-7[12:1],,2/4,,3/5,,,3/5,,7,,2/5,,3/4,3/4,,5-1[12:1]/2,,4/6,,7/5,,,
7/8,,1/6,,2/1,,3/8,,4,6,4,6,5v3[8:1],,5,,8p4[8:1],,8,,2q6[8:1],,2,,7p3[8:1],,7,,
1,,1,,2/5,,4/6,,5/7,,1/8,1/8,,2/4,,5/7,,6h[16:3]/1,,,
{32}8,1,2,3,4,5,6,7,8,1,2,3,4,5,6,7,8,1,2,3,4,5,6,7,8<1[8:3],1,2,3,4,5,6,7,
{16}
8b,,,,,,,,7/8w4[8:1],,,,8,,,,2>5[8:1]/5<8[8:1],,,,2/5V38[16:3],,,,1,,7,,
5,5,1,,7,8,7,8,6,5,6,5,7-4[8:1],3,7,3,7,,2,,1>4[8:1]/4<7[8:1],,,,4/1V73[16:3],,,,
4,,2,,8,8,4,,2,1,2,1,3,4,3,4,1,2,3,4,7,6,5,4,3-7[8:1],,2,,1/3,,,,
6-2[8:1],,5,,8b,,8b,,1,1,8,2,7,3,6,5,4,4,5,3,6,2,7,1,
{32}8,7,6,5,4,3,2,1,8,7,6,5,4,3,2,1,
8h[64:1],7h[64:1],6h[64:1],5h[64:1],4h[64:1],3h[64:1],
2h[64:1],1h[64:1],8h[64:1],7h[64:1],6h[64:1],5h[64:1],4h[64:1],3h[64:1],2h[64:1],
1h[64:1],
{16}8-4[8:1],,,,,,,,{12}2v5[8:1]/7-4[8:1],27,27,2b/7b,,,{8}
8/1h[2:1],,,,2h[2:1],,,,3h[2:1],,,,4,,3/6,,8h[2:1],,,,7h[2:1],,,,6h[2:1],,,,
5,,4/6qq6[4:1],,1/6<1[4:1],,2,,3,,3pp3[4:1]/4,,3>8[4:1]/8,,7,,6,,
5/6-2[8:1]*-1[8:1],,6b,,3-8[8:1]*-7[8:1]/4,,3b,,6/5-1[8:1],,6/5b<4[2:1]*pp4[2:1],,,,,,
{16}
,,,,
2,4,2,4,3,5,3,5,4,6,4,6,5,7,5,7,6-2[8:1],,,,,,,,8-3[8:1]*-5[8:1],,,,,,,,
7,5,7,5,6,4,6,4,5,3,5,3,4,2,4,2,1h[8:1]/3h[8:1],,,5h[8:1]/7h[8:1],,,
4V25[16:3]/6V85[16:3],,
6b/4b,,,,,,,,
6,5,6,4,5,3,4,3,6,5,6,4,5,3,4,3,7,5,6,4,5,3,4,2,7,8,6,4,5,2,1,3,
{24}8b,1,2,3,4,5,1b,8,7,6,5,4,8b,1,2,3,4,5,1b,8,7,6,5,4,
{16}3-6[8:1]/7-2[8:1],,,,,,,,1-6[8:1]/5-2[8:1],,,,1b/5b,,,,
{16}
3/5-1[8:1],,46,,7,,6,6,8-5[8:1],7,1,,2,2,,,
3/4-8[8:1],,25,,1,,2,2,1,3,8,4,7,75,,,
6-1[8:1]/5,,37,,56,,3,8,,12,12,,4/7,,3,4,
3-8[16:2],,2/6,,43,,6,1,,78,78,,1b/6b,,,,
6/4q8[8:1],,53,,2,,3,3,1^6[8:1],2,8,,13,3,,,
4-1[8:1]/2,,53,,6,,7,7,8,6,1,5,2,24,,,
3-8[8:1]/4,,26,,43,,5,1,,87,87,,16,,6,5,
8b<5[8:1],,6,,4b>1[12:1],,2,,{32}8w4[8:1],7,6,5,4,3,2,1,{16}8b,,,,
1-5[8:1],8,2,8,1,,7,7,3,6,5,8,1,7,3,1,
2-7[8:1],4,3,4,2,,6,6,8,5,2,1,4,7,5,,
{24}4^1[8:1]/6b,7,8,{16}1,,4b,,7,7,1-5[8:1],8,2,,1b/3b,,,,
{24}4b<7[8:1]/6,3,2,{16}1,,4b,,2,2,,7,8,,{32}1b/8b,27,36,,{16},,
8p4[8:1],1,7,1,8,,2,2,8,3,4,1,8,2,6,8,
7-2[8:1],5,6,5,7,,3,3,1,4,7,8,5,2,4,,
{24}5^8[8:1]/3b,2,1,{16}8,,5b,,2,2,8-4[8:1],1,7,,8b/6b,,,,
{24}5b>2[8:1]/3,6,7,{16}8,,5b,,7,7,,83,38,,
{32}1/6,2,3,4,5/8,7,6,5,4bV62[1:1]/1bV73[1:1],
