&title=Star In The Sky (full ver.)
&artist=DADULLA feat.ぽんぽん
&first=0
&des=Dororo In The 伍舟之雨
&lv_5=14
&inote_5=(82)
{1},,
{64}8h[8:3]/E3,E4,E5,,{16},,,,,,,,,,,2,,,,
{64}2h[8:3]/E7,E6,E5,,{16},,,,,,,,,,,6,,,,
{64}6h[8:3]/E3,E4,E5,,{16},,,,,,,,,,,4,,,,
{64}4qq3[2:1],5pp6[32:15],,,{16},,,,,,,,,,,,,,,
{16}3h[16:3],,4,4h[16:3],,,2h[16:3],,4,4,,,35,,,,
{16}6h[16:3],,4,4h[16:3],,,7h[16:3],,4qq3[6:1],4,,,6,,,,
{16}2h[16:3],,4,4h[16:3],,,1h[16:3],,4,4,,,8>7[8:3]/5,,,,
{16}6h[8:3],,,,,,,,1,1,,8,2,8,37,,
{16}6h[16:3],,5,5h[16:3],,,7h[16:3],,5,5,,,64,,,,
{16}3h[16:3],,5,5h[16:3],,,2h[16:3],,5pp6[6:1],5,,,3,,,,
{16}7h[16:3],,5,5h[16:3],,,8h[16:3],,5,5,,,1-3s7[8:3]/4,,,,
{16}3h[8:3],,,,,,,,2,3,4,5,6,7,18,,
{16}2qq7[2:1]/7,,,,E4,,,5,,,5,,E4,,,6,
{16}6xpp3[2:1]/1x,,,,E2,,,4,,,4,,E2,,,,
{16}3xqq7[2:1]/4x,,,,E5,,,6,,,6,,E5,,,5,
{16}1xh[4:1]/5xpp5[4:1],,,,,,,3,4,,25,,,6,5,,
{16}7bpp3[2:1]/4b,,,,E6,,,4,,,4,,E6,,,3,
{16}3xqq4[2:1]/8x,,,,E8,,,5,,,5,,E8,,,,
{16}6xpp1[2:1]/5x,,,,E5,,,3,,,3,,E5,,,4,
{16}4x/8xz4[6:1],,6,,3,,1x,,,{32}2,8,{16}2,7,46,,28,,
{16}7-4[12:1]/3,,,4,4-6[12:1],,2,,7-4[12:1],,,,4,,1,,
{16}2-8[12:1]/8,,,7,7qq3[3:1],,5,,2-8[12:1],,,,,,,,
{16}1/4-6[12:1],,,7,7-4[12:1],,1,,4-6[12:1],,,,7,,1,,
{16}4/8-4[12:1],,,2,1h[8:1]/8,,6,,7,5,6,2,4,3,5,4,
{16}2-5[12:1]/6,,,5,5-3[12:1],,7,,2-5[12:1],,,,5,,8,,
{16}7-1[12:1]/1,,,2,2pp6[3:1],,4,,7-1[12:1],,,,,,,,
{16}8^3[12:1]/5,,,4,4-8[12:1],,5,,7^4[12:1],,,1,1s5b[6:1],,2,,
{16}1/8h[8:1],,,,4-1[16:1],7-4-1[8:1],26,,4b,7b,,,{96}D4,A4,D5f,A5,D6,,{16},,,
{16}8x/1x,,3/4>6[6:1],25,,65,7h[4:1],,,,5,,1-4[16:1],3,2,,
{16}18,,6/5<3[6:1],74,,34,2h[4:1],,,,4,,8-5[16:1],6,7,,
{16}3h[8:1]/8,,4,,8-5[16:1],2,1,,8/6h[8:1],,4,,8-5[16:1],6,7,,
{16}4-8[16:1]*-1b[16:1]/8,,2,,4,,,,27,1,6,57,8,3,24,,
{16}7-3[16:1]/8-4[16:1],,5<2[8:1],1,78,,1h[4:1],,,,4,,35,3,8,,
{16}2-5[16:1]/1-6[16:1],,4>7[8:1],8,21,,8h[4:1],,,,5,3,2-6[16:1]/6,,8,,
{16}1-5[16:1]/2,,4,7,8-4[16:1]/1,,6,1,78,,5,8,3^6[8:1]/7-2b[8:1],,2-8v1-7b[8:3]/6qq3[8:3],,
{16},,,,,,,,,,,,E3h[8:1]/E7,,,,
{16}6xh[16:3],5,4,5h[16:3],,,7h[16:3],5,4^6[16:1],5,,,8,,,,
{16}3h[16:3],5,4,5h[16:3],,,2h[16:3],5,4^7[12:1],5,,,2,,,,
{16}7h[16:3],5,4,5h[16:3],,,8h[16:3],5,4<8[8:1],5,,,1>8[8:3],,,,
{16}7h[8:3],,,,,,,,8,8,,1,7,1,26,,
{16}3h[16:3],4,5,4h[16:3],,,2h[16:3],4,5^3[16:1],4,,,1,,,,
{16}6h[16:3],4,5,4h[16:3],,,7h[16:3],4,5^2[12:1],4,,,7,,,,
{16}2h[16:3],4,5,4h[16:3],,,1h[16:3],4,5>1[8:1],4,,,8<4pp4[8:3],,,,
{16}2h[8:3],,,,,,,,3,4,,6,5,7,18,,
{16}7xh[8:5]/E2,,,C,,,E6,,,,5,,47,,6,,
{16}3xh[8:5]/E1,,,C,,,E5,,,,4,,26,2,8,,
{16}1xh[8:5]/E8,,,C,,,E4,,,,2,,38,,1,,
{16}E7/4,,5,C/5,,4,E3/4,,1,7,5,2,4,6,1x,,
{16}2xh[8:5]/E8,,,C,,,E4,,,,4,,52,,3,,
{16}6xh[8:5]/E1,,,C,,,E5,,,,5,,73,7,1,,
{16}8xh[8:5]/E2,,,C,,,E6,,,,7,,61,,4,,
{16}37,,8,2,13,,7,68,,45,45,,8,3,6b/2b,,
{16}1h[16:3]/8,,,4,3h[8:1]/5-8[12:1],,7h[16:5],3,5,,,1h[16:1],2h[16:1],3h[16:1],4h[16:1],7,
{16}6h[16:3]/5,,,1,8-5[12:1]/2h[8:1],,7h[16:5],2,8,,,{32}5,6,{16}5,8,2,6,
{16}3h[16:3]/5,,,8,7h[8:1]/5-8[12:1],,4h[16:5],7,5,,,1h[16:1],2h[16:1],3h[16:1],4h[16:1],5,
{16}6h[16:3]/4,,,1,7h[8:1]/8-5[12:1],,2h[4:1],7,8,,4,,25,{32}3,4,{16}3,7,
{16}8/1b,,4-1[12:1]/5-8b[12:1],62,26,,4b/5,,,,12,18,{32}78,1,2,3,8,7,6,5,
{16}3xh[16:3]/4x,,,8,1b-4[12:1]/7h[8:1],,2h[16:5],7,1,,,4,1,6,37,,
{16}6h[16:3]/4,,,1,2h[8:1]/4-1[12:1],,5h[4:1],2,4,,{32}E7,E8,E1,E2,{16}E3f,,1x/8x,,
{16}3-1[16:1]/4-2[16:1],,7-5[16:1]/8-6[16:1],,4w8[12:1]/3,,78,,4x,,,2x/5x,2xpp4[12:1]/5xpp7b[12:1],,18,,
{16}C/E5f,,,,2/8,,7h[16:1],6h[16:1],5,,3,,24,,1,,
{16}7h[16:1],6h[16:1],5h[16:1],4,34,,7h[16:1],6h[16:1],5,,3,,24,,1h[16:1],7h[16:1],
{16}8,8,,16,2h[16:1],3h[16:1],5h[16:1],6h[16:1],8,8,,16,7h[16:1],6h[16:1],5h[16:1],3h[16:1],
{16}2h[16:1],1h[16:1],8,8,,6,5,4,3^6[12:1]/7p2[12:1],,12,,3b/7b,,5x,8x,
{16}3x/1x<5[8:1],,3,,31,,3,4,1<5[8:1],8,2,,13,,3,,
{16}2/5-8[12:1],,2,,25,,2,1,4qq4[6:1],5,3,,45,,5,,
{16}6/8>4[8:1],,6,,68,,6,5,8>4[8:1],1,7,,86,,6,,
{16}7/4-1[12:1],,6/5-8b[12:1],,7b/4b,,5,,26,,8,{32}3,5,3,,7,,1,,4,,
{16}6h[8:1]/2b,,5,7,8h[8:1]/1,,3,5,6h[8:1]/2-5[12:1],1,,,8h[8:1]/2,,,,
{16}3h[8:1]/7,,4,2,1h[8:1]/8,,6,4,3h[8:1]/7-4[12:1],8,,,1h[8:1]/7,,5,1,
{16}3b/8^5[12:1],,7,4,8^3[12:1]/2,,1,7,8,6,6h[8:1],,5,,48,,
{16}6/1^4[12:1],,2,5,1^6[12:1]/7,,8,2,1,3,3,{32}5,4,{16}5,2,1,8,
{16}2b-6[12:1]/7b,,3,5,7-4[12:1]/2,,8,5,3-8[12:1]/7,2,5,,6-2[12:1]/3,,7,1,
{16}26,,18,,37,,18,,2,4,7,5p4[8:3],12,38,74,6/5,
{16},,,,,,,,,,,,,,,,
{48}E2,B2,,,,,,,,,,,{16},,,,{48}B7,E7,,,,,,,,,,,{16},,,,
{48}B8/E1,,,,,,,,,,,,{16},,,,{48}E4/B3,,,,,,,,,,,,{16},,,,
{48}E8/B8,,,,,,,,,,,,{16},,,,{48}E3/B3,,,,,,,,,,,,{16},,,,
{48}B5,E5,,,,,,,,,,,{16},,,,{48}A8,D1,A1,,,,{16}3,3,,6,6,,
{16}2xh[4:1],,,,4,,3,,25,,,,,,2,1,
{16}3h[16:3],,,5h[16:3],,,7,,6h[4:1]/8h[4:1],,,,,,6,5,
{16}7h[4:1],,,,5,,6,,74,,,1,1-4[16:1],8,7-4[16:1],26,
{16}1-6[16:1],,7-2[16:1],,1,,7,,{24}3,3,4,7,7,5,{16}8,71,2z6z2[8:5]/6,35,
{16},,,,,,,,
{16},,,,,,{24}8,1,7,{16}2b<7[16:1],,3/6>3[16:1],,2,,6,,
{16}8,,2^7[16:1]/6^3[16:1],37,,37,26,,8x,5,3,8,26,3,5,4,
{16}3/7p2[12:1],,1,1h[8:1],,,8,8,2q7[12:1]/6,,8,8h[8:1],,,1,1,
{16}37,,6,58,,3,1b/4,,{24}2,5,8,4,7,1,3,6,8,7,4,1,
{16}2x-7[16:1]/8x-3[16:1],,,,8b/2b>6[8:1],,6<2[8:1],6,,1,1,,4,5,63,,
{16}7-2[16:1]/1-6[16:1],,26,26,1/7V53[8:1],,3V17[8:1],3,,8,8,,5,4,36,,
{16}1^6[16:1]/2,,4,7,8-4[16:1]/1,,5,1,7^2[16:1]/8,,5,8,3pp6[4:1]/7pp2[4:1],,,,
{16},,,,,,1,1,8,,27,,3h[16:1],4h[16:1],5h[16:1],6,
{16}8^3[16:1]/7,,5,2,1-5[16:1]/8,,4,8,2^7[16:1]/1,,4,1,62,,8,,
{16}5b-8[16:1]/7b,,1,3,4b-1[16:1]/5b,,7,3,2b/4b,,{48}D2,D3,D4,D5,D6,D7,{16}D8f,,2x/6x,,
{16}3V52[8:1],,2qq6[4:1],,5,,7,7,,5,5-8[16:1],,46,,1,,
{16}5V36[8:1],,6pp2[4:1],,3,,1,1,,4,4^7[16:1],,17,,2,,
{16}3V52[8:1],,2qq6[4:1],,5,,7,7,,5,5-8[16:1],,46,,1,,
{16}2s6[12:1]*z6[12:1],,13,13,2,,8x,,6,5,4,{32}3,6,3,,87,,32,,65,,
{16}A2h[16:1],B3h[16:1],B7h[16:1],A6h[16:1],Cf,,2x,2x,,4,4-1[16:1],,53,,8,,
{16}4V63[8:1],,3qq7[4:1],,6,,8,8,,5,5^2[16:1],,82,,7,,
{16}6V47[8:1],,7pp3[4:1],,4,,2,2,,4,4-1[16:1],,53,,8,,
{16}5^7[16:1]/6x,,3x/4^2[16:1],,5p1[16:1]/7x,,4q8[16:1]/2x,,5/8x,,4/1x,,6^3[8:1],2-7b[12:1],7-1v8-2b[16:14],3pp6[16:13],
{16},,,,,,,,,,,,,,,,
{16},,,,,,,,,,,,B7h[4:5],,B2h[8:9],,
{16}Ch[1:1],,,,,,,,,,,,,,,,
{16},,,,,,,,,,,,,,,,
{16}4-1[4:3],,,,,,,,,,,,,,,,
{16}5-8[4:3],,,,,,,,,,,,,,,,
{16}4-1[4:3],,,,,,,,,,,,,,,,
{16}5-8b[4:3],,,,,,,,,,,,,,,,
{16},,,,,,,,,,,,,,,,
E
