&title=BLRINK
&artist=Sta
&first=0.01
&des=散打和扫键相比
&lv_5=14
&inote_5=(115)
{1},
{48},6^3[4:3],,,,,{16},,,,,,,,,,,,,,
{16}2>6[4:3],,,,,,,,E5,,,,,,,,
{16}8<3[4:3],,,,,,,,C,,,,,,,,
{16}8>6b[16:9],,,,7p2[16:5],,,,,,,,,,,,
{16}8xh[2:1],,,,6pp5[8:3],,,,,,,,,,,,
{16}1xh[2:1],,,,4qq6[8:3],,,,,,,,,,,,
{16}8x<3pp2[8:5],,,,5pp1[8:3],,,,,,,,,,,,
{24}A7,E7,E6,A1,E2,E3,A8,B8,C,A3,E4,E5,1w5[8:1],,,,,,1b,,,,,,
{16}45,,,,45,,,,45,,,,2x/7x,,,,
{16}45,,,,45,,,,45,,,,2xq7[8:3]/7xh[8:1],,,,
{16}5,,,,5,,,,5,,1,1,7x,,3,,
{16}4/5,,{24}E7,A7,E8,{16}5,,{24}E3,A3,E4,{16}5,,{24}E1,A1,E2,{16}7x,,,,
{16}5/4-1[8:1],,,,5,,,,5/8-5b[8:1],,,,7x,,,,
{16}4/8V26[16:5],,,,4,,,,4,,,,{32}3x,4x,3x,4x,3x,,4x,3x,
{16}4h[4:1],,,,5,,6,,4,5,3,6,2x/7x,,,,
{16}45,,{24}6,5,7,{16}5h[8:1],,{24}7,1,6,{16}2h[8:1],,{24}4,3,5,{16}4bxz8^1s5[16:9],,,,
{16}8h[8:6],,,,,,,,,,,,5b,,17,,
{16}26,,35,,6,8,7,1,,3,1,2,8x,,,,
{16}2q6[12:1]/4v7[12:1],,,,,,,,45,,1h[16:1],8h[16:1],2x,,6,,
{16}4,4,5,3,6,6,5,7,1,1,8,2,4-8[12:1],4,3,5,
{16}4h[4:1],,,,,,4h[4:1],,1h[4:1],,,,4xh[4:1],,2h[4:1],,
{16},,4h[4:1],,3>7b[8:1],,,,{48}4b,,,,,,,,,,,,{32}6x,5x,6x,5x,6x,,5x,6x,
{16}5h[4:1],,,,4,,2,,5,1,7,3,2x/6x,,,,
{16}54,,{24}3,4,2,{16}5h[8:1],,{24}2,8,3,{16}7h[8:1],,{24}8,6,2,{16}4b,,,,
{16}1x^6[8:1]/8x,,2,,4^1[8:1],,5,,7^4[8:1],,8,,2q6[8:1],,1,,
{16}4-8[8:1],,,,1^4[8:1]*-6[8:1],,,,1,,,,7,5,6,5,
{16}8x^3[8:1],,7,,5^8[8:1],,4,,2^5[8:1],,1,,7,,8h[4:1],,
{16}7-4[8:1],,4V25[32:7],,2-8[32:3],,,,,,,,7/6,,,,
{16}7h[8:1],,1,,6/5h[8:1],,7,,2x/8x,,3x,7x,{24}4,5,4,6,5,6,
{16}3h[8:1],,1,,2/4h[8:1],,3,,7x/1x,,6x,2x,{24}5,4,5,3,4,3,
{16}7h[8:1],,1,,6/5h[8:1],,7,,3x/8x,,2x,1x,{24}5,6,4,5,3,4,
{32}2b,1,8,7,6,5,4,3,2b/5,1,8,7,6,5,4,3,2b/6,1,8,7,6,5,4,3,{16}2b/7b,,,,
{16}5xb,3,4,2h[8:1],,1,1,3,8,4,6,5,7,8,6,1,
{16}5,3,4,2h[8:1],,1,1,3,8,8,{32}5,6,5,,{16}7b,3b,8b,1b,
{16}5,3,4,2h[8:1],,1,1,3,8,4,6,5,7,4,8,3,
{16}1>5qq7[2:1],,,,,,,,,,,,1x,,,,
{16}2,5,4,7h[8:1],,8,8,6,5,8,1,6,3,4,2,8,
{16}5qq3[8:1],,8^5[8:1],,5s1[16:3],,8,,2,,,,,{32}2x,,4x,3x,4x,,
{16}2,5,4,7h[8:1],,1,8,3h[8:1],,4,2,6h[8:1],,3,5,1h[16:3],
{16}3x-8[8:1],,8V64[32:7],,6p2[32:4],,,,,,,,8x<2z6[16:13]/1x,,,,
{16}E8f,,,,2-4v5[16:5],,,,,,,,,,,,
{24}8,1,8,{16}1,,18,,,,3h[8:3],,,6h[16:3],,,,,
{16}5,,1h[8:1],,5x,1x,,,3h[8:1]/4h[8:1],,,4h[8:1]/5h[8:1],,,5h[8:1]/6h[8:1],,
{16},,7,7,5h[8:1],,8,8,5<3b[32:5],,1,1,,,,,
{16}7x,5x,{24}6x,4x,5x,3x,4x,2x,{16}3x,1xh[8:1],,8x,8x,,3x,4x,5x,6x,
{16}5xh[4:1]/7xh[2:1],,,,,,,,,,,,,,,,
{16}7x,5x,{24}6x,4x,5x,3x,4x,2x,3x,1x,2x,{16}8xh[8:1],,1x,,2b/7b,,,,
{16}24,3,4,57,6,5,14,2,3,85,7,6,1b/Cf,,,,
{16}4^1[8:1],,4^6[12:1],,4q5[4:1],,,,,,,,6xh[16:5],,,,
{16}1,8,6h[8:1],1,8,6h[8:1],1,8,6h[8:1],1,8^3[8:1],6,4bxpp3[16:5],,,,
{16}4,,,,,,8,,2,3,7,6,54,,,1,
{16}2h[16:3],4,,6h[16:3],5x,,8,,7h[16:3],5,,3h[16:3],4xqq5b[16:5],,1bqq8b[16:3],,
{16}4b,,,,,,,,5,6,1,8,2xh[16:5],,,,
{16}5,6,2h[8:1],5,6,2h[8:1],5,6,2h[8:1],5,6,2,8bx,,,,
{16}43,3,7,8,1x/6x,,,4,5/6,7,1,,2x/6x,,,,
{32}8b/1b,7,6,5,4,3,2,1,8b/3b,7,6,5,4,3,2,1,8b/5b,7,6,5,4,3,2,1,8b/Cf,,,,,,,,
{16}8x^5[8:1]/1x,,7,7,4-8[8:1],,2,,1^4[8:1],,2,2,5-1[8:1],,7,,
{16}6p2[8:1],,,,8^5[8:1]*^3[8:1],,,,8,,,,2,4,3,4,
{16}1x^6[8:1],,8,8,4^1[8:1],,5,,7^4[8:1],,8,8,2,,1h[4:1],,
{16}2-5[32:4],,5-7[32:3]*-8[32:3],,7p3[32:4],,,,,,,,2h[16:3]/8h[8:1],,,,
{16},5,5,4,5,2,2,4,3,7,7,5,{24}8x,2,7,1,6,8h[48:5],
{16},4,4,3,4,1,1,8,2,6,6,5,{24}1x,3,8,2,7,1h[48:5],
{16},6,6,5,7,1,1,8,2,4,4,3,7,5xb,5xb,6xb,
{32}D4,D3,D2,D1,D8,D7,D6,D5,E4,E3,E2,E1,E8,E7,E6,,{24}8xh[24:1],3xh[24:1],7xh[24:1],2xh[24:1],6xh[24:1],1xh[24:1],5x-1[12:1]b,,,,,,
{16}5b/1b,,3,,7,7,4,6,2,8,1,1,{24}5x-1[12:1],3,6,4,7,5,
{16}8x,,6,,5,5,4,6,2,8,1,1,{24}4x-8[12:1],2,5,3,6,4,
{16}7x,,6,,51,,2,4,3xh[16:1],7xh[16:1],4xh[16:1],6xh[16:1],{48}1b,B1f,,{16},,,
{16}8/7,,6,6h[8:1],,5,5h[8:1],,1h[8:1],,2h[8:1],,3h[8:1],,4,,
{16}5x/7x,,4,4,{24}1x-6[12:1],3,8,2,7,1,{16}6,,4,4,{24}8x-3[12:1],6,1,7,2,8,
{16}3x,,5,5,{24}2x-6[12:1],4,1,3,8,2,{16}7,,4,4,{24}7x-3[12:1],5,8,6,1,7,
{16}2x,,{24}E4,E5,A5,E2,E3,A3,E8,E1,A1,E6,E7,A7,3,4,5,1,2,3,7,8,1,
{16}5<3[16:3],,8xh[4:1],,,,,,{24}1xh[24:1],5xh[24:1],2xh[24:1],6xh[24:1],3xh[24:1],7xh[24:1],{16}4xb,,,,
{16}3,5,7,3,5x,7,3,5,7,3,5,7,3x,5,4,8,
{16}2,4,6,2,4x,6,2,4z8[32:5],6v1[32:3],,,,,,,,
{16}7-3[32:3],6,2,3,7x,,,,{32}2,8,2,8,{24}3,7,4,{16}6x,5h[384:1],5h[384:1],5h[384:1],
{16}8,{32}E7,E6,E5,E4,E3,E2,D7,D6,D5,D4,D3,D2,,,{32}7,8,7,8,7,8,7,8,{16}6b,,,,
{16}6,4,2,6,4x,2,6,4,2,6,4,2,6x,4,5,1,
{16}7,5,3,7,5x,3,7,5<2b[32:6],3qq2b[32:4],,,,,,,,
{16}3^6[32:3],2,7,6,3x,,,,{32}7,1,7,1,{24}6,2,5,{16}3x,4h[384:1],4h[384:1],4h[384:1],
{16}1,{32}2x,3x,4x,5x,6x,7x,1x,2x,3x,4x,5x,6x,,,{32}1<5b[8:1],8,2,8,1,8,2,8,
