&title=fulgente
&artist=Junk
&first=0.3
&des= Δものがたり
&lv_5=13
&inote_1=
&inote_5=(133.01){16}4h[8:3],,,5,,,6,,,,5,,6,,7,,8<4[2:1],,,1,,,2,,{4},,{16}1h[8:3]/6,,,6,,,7,,,,3,,2,,1,,1>5[2:1]/4,,,6,,,8,,{4},,
{8}5h[8:7]/4,4,3,3,2,2,1,1,84,4,51,5,26,6,37,7,{16}8,2,8,1,8,2,8,1,7,2,7,1,7,2,7,1,
{4}6-1[8:1],6q3[4:1]*>3[4:1],,,{1}1b,
{4}3h[16:3],4,3h[16:3],4,3h[16:3],4<8[8:3],3,4,
{4}5h[16:3],6,5h[16:3],6,5h[16:3],6-8-4[8:3],4,2,
{16}6h[16:3],,,5,5,,,,6h[16:3],,,4,4,,,,6h[16:3],,,3,3-1-4[8:3],,,,6,6,,,7,,,,
{16}8h[16:3],,,4,4,,,,8h[16:3],,,3,3,,8,4h[4:1],{2}8<5[4:1],{16}4,3,2,1,8,7,6,5,
{16}4,,,4,3,,,,5,,,5,4,,,,6,,,6,5-8[8:1],,,,5-2[8:1],4,,,5,,,,
{16}81,,,8,1,,,,7,,,7,8,,,,3,,,3,4-1[8:1],,,,4-7[8:1],5,,,4,,,,
{16}12,,,1,2,,,,8,,,8,1,,,,5-8[8:1],,,4,5-2[8:1],,,,5-1[8:1],6,,,5,,,,
{16}8,7,6h[8:5],,1,,,,2,,,,3h[8:2],,6,5,4<8[4:1],,,,,,,,3,4,5,6,7,8,1,2,
{16}3/4h[8:1],,,5h[16:3],,,7h[8:1],,,,7,8,1,2,3,4,
{16}5/1h[8:1],,,4h[16:3],,,2h[8:1],,4,,,,2,,3,4,5,,3,5,3,,6,4,6,,4,5,4,,4,,{4}32,56,78,3h/4h,
{24}3,4,3,{16}4,2,5,2,5,3,6,3,6,4,7,4,7,4,{24}6,5,6,{16}5,7,4,7,4,6,3,6,3,2,5,2,5,2,
{24}3,4,3,4,3,4,{8},25,{24}6,5,6,5,6,5,{16}4q6[2:1]/7,,4,,4,,,,6<3[16:6],,,,,,,,,,,,
{16}4h[2:1]/3,,,5,,,6,,,7,,,8,,1,,2h[4:1]/5pp1[8:5],,,,,,,,2-4[8:1],,,,2,,,,
{16}3h[2:1]/4,,,5,,,6,,,7,,,8,,7,,6h[4:1]/5qq1[8:5],,,,,,,,6-8[8:1],,,,6,,,,
{16}8qq5[2:1]/1,,,2,,,3,,,4,,,3,,2,,1h[4:3],,,,5,,,,4,4,,,6,,,,3h[4:3]/4<6[4:1],,,,,,,,,,,,,,,,
{2}8h[2:1]/6>3[4:1],
{16},,,,8,7,6,5,
4h[16:3],,,2h[16:3],,,8h[16:3],,,2h[16:3],,,4h[8:1],,3,,
3h[16:3],,,6h[16:3],,,8h[16:3],,,5h[16:3],,,3,,2,,
1h[16:3]/8,,7,7h[16:3],,,3h[16:3],,5,5h[16:3],,,1h[8:1],,8,,
2/8h[16:3],,1,1h[16:3],,,5h[16:3],,3,3h[16:3],,,7,,6,,{24}4,5,4,{16}5,3,6,3,6,2,7,2,7,1,8,1,8,1,{24}7,8,7,{16}8,6,1,5,2,4,3,5,4,5,4,6,5,6,
5,7,5,8,5,1,4,1,3,1,2,1,1,1,1,1,1b>3-7[4:2]*-5<7[4:2],,,,,,,,,,,,,,,,
{16}1-5[8:1],,2,,1/7<4[8:1],,,,7/1h[4:1],,,,4h[4:1],,1,2,3,,4-8[8:1],,,3,4,,1h[16:3],,,7h[8:1],,1,2,3,
4/5-1[8:1],,6,,5/4-8[8:1],,,,4/7h[4:1],,,,4h[4:1],,7,6,5,,4-8[8:1],,,5,4,,7h[16:3],,,2h[8:1],,7,6,5,
4-7[8:1],,5,,4-1[8:1],,3,,4,,,6,6h[4:1],,1,2,3,,6-1[8:1],,,5,6,,2h[16:3],,,7h[8:1],,2,3,4,5/7-5[8:1],,6,,7/2-4[8:1],,4-8[8:1],,2/7h[8:1],,,,,,{24}8s4[16:3]*z4[16:3],17,26,35,,,8b,,,,,,,,,{16}86,,45,,13,,57,,4-8[8:1]/8-4[8:1],,15,,48,,,,7h[4:1],,,3,3,,73,62,51,,1-5[8:1],,5-1[8:1],,,,7,,,6,6,,61,72,
8-5[8:1]/3-8[8:1],,4,,38,,,,5h[4:1],,,8,8,,58,61,72,,2-7[8:1],,7v4[8:1],,2,,6,,,6,6,,64,35,2-5[8:1]/4-1[8:1],,3,,24,,,,1h[4:1],,,5,5,,15,48,37,,4v5[8:1],,8v1[8:1],,4,,8,,5,5,,51,48,37,
26,,37,,48,,37,,62,5,4,3,{24}2<3[8:7]*<6[8:4]*<5[8:5]*<4[8:6],3,4,5,6,7,{1}8b,
{16}1/8qq4[4:2],,1,,,2,,,3,,,3,,,2,,51,,2h[8:1]/3,,,6/5h[8:1],,,4h[8:1]/3,,,7/8h[8:1],,,2,,
{16}8/1-3-5-1[4:2],,8,,7,7,,,6,,6,6,,,7,,48,,7h[8:1]/6h[8:1],,,3h[8:1]/4h[8:1],,,5h[8:1]/6h[8:1],,,2h[8:1]/1h[8:1],,,7,,
{16}8/7qq4[4:2],,8,,,1,,,2,,,2,,,1,,48,,1h[8:1]/2,,4,4/5h[8:1],,,2h[8:1]/3,,6,6/5h[8:1],,,1,,
1-4[8:1]/8-5[8:1],,27,,18,,,,1b/2b,,,4b/5b,,,7b/8b,,{24}1,2,3,{16}45,,,67,,,13,,54,,68,,42,,{16}1q4[8:3]*p6[8:3]/5,6,7,8,1,,,,
{16},,,,,,7,6,5,,2,3,4,,6,5,6,,3,4,3,,8,7,6h[4:1]/1q4[2:1],,,,,,,,6,,7,7,,,8,,4h[4:1]/8p5[2:1],,,,,,4,3,2,,,,3,,,,
{24}4,5,4,{16}5,3,6,3,6,2,7,2,7,1,8,1,8,1,{24}7,8,7,{16}8,6,1,5,2,4,3,4,3,5,4>5[4:3],5,4,5,4,,,,,,,,,,,,,,,,7,6,4,3,6,5,3,2,4-8[8:1],5,6,7,4,3,2,1,
