&title=DORCHADAS -Sharnoth OP theme-
&artist=Rita
&first=0.01
&des=s/686649
&lv_5=13
&inote_5=(94)
{1},
{16},,2,1,
{16}
3p8[32:15],,,,,,1,,7,,5,,
3pp6[32:15],,,,,,7,,1,,3,,
5qq2[32:15],,,,,,2,,8,,6,,
4-7-3-6b[16:6],,,,,,8b,,2b,,4b,,
8h[16:1],1h[16:1],3h[16:1],1h[16:1],8h[16:1],6h[16:1],
8x,3,4,2x,7h[16:1],5h[16:1],
6h[16:1],5h[16:1],4h[16:1],3h[16:1],
4,4,2x,4,4,1x,4,4,
1h[16:1],8h[16:1],6h[16:1],8h[16:1],1h[16:1],3h[16:1],
1x,6,5,7x,2h[16:1],4h[16:1],
3h[16:1],4h[16:1],5h[16:1],6h[16:1],
5,5,7b,,5bs1b[16:4],,3b,,
{16}
,,,,,,2pp3[32:5],,3,,5,,7,,8-6[32:3],8,
2-4[32:3],,1-5[32:3],,,,,,
2,,,45,,,7qq6[32:5],,6,,4,,2,,1>4[32:3],1,
8<5[32:3],,1-5[32:3],,8qq4[32:11],,,,
,,,2,2,,8>3[16:2],,3<6[16:2],,6,,
8,,1-6>3-7[32:11],1,6,,3,,,,,8,8-3<6-2[32:11],
,,3,,,5,,7,,1,,
34,,8-4[32:3],8,3-7[32:3],,8b<3[16:2],,
3b<1[16:3],,8b,,,,,2,,,4qq5[9:2],,5,,7,,
{16}1,,8-6[12:1],8,1-5[11:1],,2-4[12:1],,,,,,6,,,12,
,,5pp4[9:2],,4,,2,,8,,1^4[10:1],1,5^8[10:1],,1q5[10:1],,
5pp3[8:2],,,,1,,,8,8,,7-4[12:1],,5-8[12:1],,3,,
1,,2-5^4-1[8:2],2,7,,8-5[8:1],,,,,,8-3^2-6[8:2],,,5,
5,,7,,8-5<3-8[8:3],,1,,2-5[8:1],,,,,,,,
76,,76,,1h[8:2]/4,,,2,2,,78,,61,,78,,
5hb[8:1]/4hb[8:1],,,1hb[8:1]/2hb[8:1],,,7b-4b[12:1]/3,,1/8b,,
(120)
{8}7b/5h[8:12],,B3,,B4,,E5,,
B5,,B6,,{16}7,7,,3,3,5,1,7,
5b,,8,8,
1,6,5,7,
1,5,4,6,
1,4,3,5,
8b,,6,6,2,5,4,5,1,4,3,6,5,8,2,2,
4b,,1,5,2,5,3,5,4,4,6,6,5,5,7,7,
3h[8:1],,1,2,8,1,7,8,6,2,4,8,5,1,7,3,
1b,,4,4,
8,3,4,2,
8,4,5,3,
8,5,6,4,
1b,,3,3,7,4,5,4,8,5,6,3,4,1,7,7,
5b,,8,4,7,4,6,4,5,5,3,3,4,4,2,2,
6h[8:1],,8,7,1,8,2,1,3,7,5,1,4,8,2,6,
8b,,6,5,7^4[8:1],4,8-2[8:1],,7-3[8:1],,,,,,1,1,
4x,,3,4,2^5[8:1],5,1-7[8:1],,2-6[8:1],,,,,,8,8,
5x,,6,5,7v4[8:1],4,8^2[8:1],,7q3[8:1],,,,,,1,1,
4x,,3,4,2v5[8:1],5,1^7[8:1],,2p6[8:1],,,,,,8,8,
5x,,6,5,8^3[8:1],1,4^7[8:1],,8-4[8:1],,,,,,8,8,
2x,,3,4,1^6[8:1],8,5^2[8:1],,1-5[8:1],,,,,,1,1,
7x,,6,5,8^3[8:1],1,4-7[8:1],,8q4[8:1],,,,,,8,8,
5x,5,6,3x,3,4,1x,1,7q3[8:1]*p3[8:1],,,,7,,,,
1b/5b,,3,4,1q5[8:1],6,5^8[8:1]*q1[8:1],,1^4[8:1],,,,,,7,7,
8x,,6,5,8p4[8:1],3,4^1[8:1]*p8[8:1],,8^5[8:1],,,,,,2,2,
1x,,3,4,2-5[8:1],6,5-1[8:1]*^2[8:1],,2-6[8:1],,,,,,7,7,
8x,,6,5,7-4[8:1],3,4-8[8:1]*^7[8:1],,7-3[8:1],,,,,,2,2,
1x,,3,7,5-1[8:1],6,1>5[8:1]*-6[8:1],,6x/5x-2[8:1],,,,,,7,7,
8x,,6,2,4-8[8:1],3,8<4[8:1]*-3[8:1],,4x-7[8:1]/3x,,,,,,2,2,
1x,,3,7,5-1[8:1],6,1>5[8:1]*-6[8:1],,6x/5x-2[8:1],,,,,,7,7,
8x,6,5,1x,3^6s2b[8:3]*^8z4b[8:3],4,8x,,3b,,,,,,,,
7h[8:1]x/3x,,5,6,8h[8:1],,5,4,1h[8:1],,3,4,2h[8:1],,5,5,
3,4,2,1,4,5,1,8,5,6,8,7,5,5,1,1,
2hb[8:2],,,,8x,17,26,35,4hb[8:2],,,,1x,82,73,64,
5hb[8:2],,,,8x,17,26,35,4bv7[8:1]*v1[8:1],,,,4,,,,
2h[8:1]x/6x,,4,3,1h[8:1],,4,5,8h[8:1],,6,5,7h[8:1],,4,4,
6,5,7,8,5,4,8,1,4,3,1,2,4,4,8,8,
7hb[8:2],,,,5x,64,53,42,3x/1bh[8:2],,,,3x,24,53,46,
7hb[8:2]/5x,,,,3x,26,15,84,7bxV14[6:1]/3bxV58[6:1],,,,7/3,,,,
1hx[8:4]/5hx[8:8],,,,,,,,,,,,,,,,
6z2[8:3],,,,,,,,3s7[8:3],,,,,,,,
8b<1b[8:6],,,,,,,,,,,,,,,,
,,,,,,,,,,,,,,,,
,,,,,,,,,,,,,,,,
