&title=88D
&artist=mommy
&first=0.28
&des=herfi
&lv_5=13+
&inote_5=(135)
{16}5,,4,,,3,,,2,,,1,,,8,,
{16}4,,,5,,,6,,,7,,,8,,8-2[16:1],,
{16},,4,,,8,,,4-6[16:1],,,8,,,3,,
{16}1-7[16:1],,,5,,,1,,,5-3[16:1],,,1b,,1b,,
{16}5,5,4,,,3,,,2,,,1,,,8,,
{16}4,4,,5,,,6,,,7,,,8,,8-2[16:1],,
{16},,4,4,,8,,,4-6[16:1],,,8,,,4,,
{16}2/3,,,,,,6/7,,,,,,,,1>4[8:1],1,
{16},8,,,7,,5<8[8:1],5,,4,,,3,,1>4[8:1],1,
{16},2,,,6,,5<8[8:1],5,,6,,,3,,2,,
{16}1/8,1h[16:11]/8h[16:7],,,,,,,,,,7,,,6,,
{16}5,5,,,,,,,,,,,,,4>1[8:1],4,
{16},5,,,6,,8<5[8:1],8,,1,,,2,,4>1[8:1],4,
{16},3,,,7,,8<5[8:1],8,,7,,,2,,3,,
{16}4/5,4h[16:11]/5h[16:7],,,,,,,,,,7,,,6,,
{16}5,5p4[2:1],,,,,,,,,,,,,,,
{16},,3,,5,5,4,6,4,5,3,5h[4:1],,6h[8:1],,,
{16}4,,5,5,,4,4,,6,6,,3,3h[4:1],,4h[8:1],,
{16},,3,,6,6,4,5,4,6,5,6h[8:1],,3,4,5,
{16}6,7h[8:1],,3h[8:1],,5,5,4,6,4,5,3,6,4,6,,
{16}4/5,,3,4,3,5,4,5,3,4,3,4,4,5,5,6,
{16}3,3,5h[8:1],2,2,5h[8:1],1,1,5h[8:1],1,2,3,,4/5,,4b/5b,
{16},,3,5,3,6,4,6,3,5,3,4,4,6,6,,
{16}3,3,5h[8:1],2,2,6h[8:1],1,1,7h[8:1],1,2,3,{32}4,5,6,7,8,1,2,3,
{16}4,5,4>1[8:1],,7b,,4,5,,6,,6,{24}4,5,4,5,,,
{16}3,,5<8[8:1],,2,,5,4,,3,,3,{24}5,4,5,4,,,
{16}8,4,8<5[8:1],,4,,2,2,,3,,4,{24}5,4,5,4,,,
{16}5,,1>4[8:1],,5,,7,7,,6,,5,{24}4,5,4,5,,,
{16}4,5,4V28[16:3],,7b,,4,5,,6,,6,{24}4,5,4,5,,,
{16}3,,5V71[16:3],,2,,5,4,,3,,3,{24}5,4,5,4,,,
{16}3/7,,5/1-5[8:1],,3/7,,1/5,,,6,,4,{24}5,4,5,4,,,
{16},,2/6,2/6,,1/5,2/6,,3/7,3/7,,4/8,3/7,,,,
{16}2,5,3,6,4,7,7,3>8[8:1],4,5,6,3,,,,,
{16}1/8,,3,5,4,6,4,5<8[8:1],3,6,4,5,,,,,
{16}1/8,,3,6,4,5,3,3V16[16:3],5,4,6,3,,,,,
{16}1/8,,6,4,5,3,6,6V83[16:3],3,6,4,6,,,,,
{16}2,5,3,6,4,7,7,3>8[8:1],4,5,6,3,,,,,
{16}4/7,,5/6,5/6,,5h[4:1]/6h[4:1],,,,,,,,,,,
{16}5,,4,,,3,,,2,,,1,,,1,1,
{16}4,,,5,,,6,,,7,,,8,,8,8,
{16},,4,,,5,,,1,2,3,,1,1,1,,
{16}1/2,3/8,,,5h[4:1],,,,3,,2,,1,1,1,,
{16}1/5,3/7,,,8b,,,,4h[4:1],,,,,,,,
{16}7/8,1/6,,1/6,,1,6,2,5,3,,4,4,4,,2/4,
{16},5/7,6,,6,5/7,,4/6,4/6,,3/5,3/5,,1/2,3/8,4/7,
{16},1/2,,5/6,4/7,,3h[2:1]/4h[8:2],,,,,,,,,,
{16}4,,1>4[8:1],,,2,,,5,,,8<5[8:1],,3,3,3,
{16},,,4,3,2,1,8,7,3,4,3,6,5,6,2,
{16}3,2,7,6,7,1,2,3,8,7,6,5,4,3,{24}2,1,2,1,2,1,
{16},2,1,3,8,4,7,{24}5,6,5,6,5,6,{16},,3,
{16}6,,{24}4,5,4,5,4,5,{16},8,3,,{24}1,2,1,2,1,2,{16},4/5,
{16}6,7,{24},,,2,3,4,5,4,3,7,6,5,4,5,6,1,2,3,4,3,2,
{24}8,7,6,5,6,7,2,3,4,5,4,3,7,6,5,1,2,3,{16}4,5,3,6,
{16}4,5h[8:1],,6h[4:1],,7h[4:1],,,,,,,,,,,
{16},2/6,,2/6,,3/7,2/6,,1/5,,3/7,,4/8,3/7,,1b,
{16},3/7,,4/8,,2/6,2/6,,1/5,,3/7,3/7,,2/6,,4b,
{16},3/6,,2/7,,1/8,2/7,,4/5,3/6,,1/2,,7/8,1/6,2/5,
{16}3/4,,,,4,5,3h[4:1]/6h[4:1],,,,,,,,1V37[16:3],1,
{16},8,,,7,,5V73[16:3],5,,4,,,3,,1v4[16:3],1,
{16},2,,,6,,5v8[16:3],5,,6,,,3,,2,,
{16}1/8,1h[16:11]/8h[16:7],,,,,,,,,,7,,,6,,
{16}5,5,,,,,,,,,,,,,4V26[16:3],4,
{16},5,,,6,,8V62[16:3],8,,1,,,2,,4v1[16:3],4,
{16},3,,,7,,8v5[16:3],8,,7,,,2,,3,,
{16}4/5,4h[16:11]/5h[16:7],,,,,,,,,,7,,,6,,
{16}5,5q4[2:1],,,,,,,,,,,,,,,
{16},,3,,5,5,4,6,4,5,3,5h[4:1],,6h[8:1],,,
{16}4,,5,5,,4,4,,6,6,,3,3h[4:1],,4h[8:1],,
{16},,3,,6,6,4,5,4,6,5,6h[8:1],,3,4,5,
{16}6,7h[8:1],,3h[8:1],,5,5,4,6,4,5,3,6,4,6,,
{16}4/5,,3,4,3,5,4,5,3,4,3,4,4,5,5,6,
{16}3,3,5h[8:1],2,2,5h[8:1],1,1,5h[8:1],1,2,5h[8:1],2,3,{32}4,5,4,5,4,5,4,5,
{16},1/8,,,,,,,,2,3,4,5,6,7,8,
{16}1,2,3,,,,,,,
{16}3,7,1-5[8:1],6,2,4,1,,,,,
