&title=SLASH
&artist=Yuta Imai
&first=0
&des=X
&lv_5=14
&inote_5=(195){4},{8},,,,,,,,,,,,,,3,
4,5,6,3,4,5,6,
3,4,5,6,3,4,5,6,
2,3,4,5,2,3,4,5,
3,4,5,6,2,7,{4}8/1,
{8}3h[4:1],4,4,2,4,2,{4}3/4,
{8}6h[4:1],5,5,7,5,7,5/6,6,
7/5,7,4/8,4,3/7,3,2/5,5,
1/6,{16}7,8,{32}7,E7,B6,B5,{8}E5,2-6[8:1],1/8,{4}Cf,
7h[4:1],8,{16}2h[8:1],,,2h[8:1],,,{8}1/3,
{16}7h[8:1],,,7h[8:1],,,{8}6/7,{16}5h[8:1]/6h[8:1],,,5h[8:1]/6h[8:1],,,{8}4,
{4}2b/B7/B6/E7f,4/3h[4:1],{16}6h[8:1],,,6h[8:1],,,{8}7/5,
{16}8h[16:3],,,1,{8}7,7,{16}7h[16:3],,,8,{8}6,6,
{4}7x/5x,4/2h[4:1],{16}8h[8:1],,,1,{8}8h[8:1],2,
{16}7h[8:1],,,8,{8}7h[8:1],5,{16}4h[8:1]/6h[8:1],,,4h[8:1]/6h[8:1],,,{8}3/5,
{4}2b/B5/B4/E5f,1/7h[4:1],{16}2h[8:1],,,1,{8}2h[8:1],4,
{16}3h[8:1],,,4,{8}3h[8:1],6,{16}7h[8:1]/5h[8:1],,,7h[8:1]/5h[8:1],,,{8}6,
{4}4q8[8:1],{8}3,3<6[8:1],,,2,2,
{4}7p3[8:1],{8}8,8<5[8:1],,,2,2,
{4}1q5[8:1],{8}8,8>3[8:1],,,6,6,
{16}5h[8:1],,,6/5h[8:1],,,{8}4/5h[8:1],{16},4/6,,,{4}1b>5[4:1],
5<1[4:1],1V35[4:1],5V71[4:1],1>1[2:1],
{8}5x,7x,{4}1V35V71[2:1],{8}5x,7x,{4}1,
{8}6x,6x,1-5[8:1],1,8-6[8:1],8,2-4[8:1],2,
{1}Cf,
{8},4/5,{4}4/5,{8}3/4,1,3/4,5,
{4}2<8[8:1]*-4[8:1],2-6[8:1],2,8b-4[8:1],
8/3-1[8:1],3/5,8/7-3[8:1],7/1-6[8:1]*-5[8:1],
1-4[8:1],1,3x/8<5[8:1],{16}3/8,2,{8}1,
{4}1-3[8:1]/5x-7[8:1],5/1-5[8:1],1/8-4[8:1],8/2-6[8:1],
1/2,{8}7-4[8:1],1/8,{2}2-5[8:1],
{4}8b-2[8:1]*-6[8:1],8-4[8:1],8/2x-6[8:1],2-4[8:1]/5<8[8:1],
2/5-1[8:1],7/5,{8}6/5,6,7/4,{16}7,6,
{4}5-8[8:1],{8}4/5,4,{16}2/1,3,{8}4,{16}6/2,5,{8}4,
{1}E2/A1/E7/A7/Cf/B7/B8/B1,
{16}3,4,{8}3,{4}2h[8:1],{16}6,5,{8}6,{4}4/7,
3/7h[8:1],2/7h[8:1],1/7h[8:1],1/7,
{16}6,5,{8}6,{4}7h[8:1],{16}3,4,{8}3,{4}5/2h[8:1],
6/2h[8:1],7/2h[8:1],8/2h[8:1],{64}8b/B8,C,B4,A4,,,,,,,,,,,,,{8}2/6,
2,3/5,3,4/7,4,5/3,5,
6/2,6,7/1,7,8/2,8,1/7,1,
{12}2,2,4,3,3,6,4,4,5,4,4,6,
3,4,3,7b,4,4,6,5,6,2b,,,1h[6:1],
4,4,E3,5,1,7h[6:1],5,5,E7,{24},,3,4,
{6}3h[6:1],{12}6,2/7h[4:1],,,1,1,8,8,{24}E3,B3,B4,E5,
{12}5xh[6:1],8,8,E4,6,1,5h[6:1],2,2,E7,{24},,2,1,
{12}2,8,3,8,4,7,4,6,5,6,3,7,
2h[6:1],8,8,4h[6:1],7,7,1h[6:1],6,6,2/5,{24},,3,4,
{6}3h[6:1],{12}5,5/4h[4:1],,,6,5,6,{24}4,3,2,5,6,7,
{4}C,{24}8,7,6,1,2,3,{4}C,{12}2/7,2/7,2/7,
{4}7/2-5[8:1],{12}1/2,,7,{4}8<5[8:1]*>3[8:1],8w4b[8:1],
{1}8bv6v4v2v8[4:7],
,4h[1:1],
5,
5h[1:1],
4,
{2}3h[2:1],4,
4h[2:1],5,
5h[2:1],6,
{1}7s3[2:1],
{8}2,2,{4}1h[4:1],{2}3-5[8:1],
{4}8h[4:1],6-4[8:1],{2}1h[4:1],
{8}6,6,{4}5h[4:1],{2}7-1[8:1],
{4}4h[4:1],2-8[8:1],{2}5h[4:1],
{8}2,2,{4}8h[2:1],{2}3-5[8:1],
{4}1h[4:1],6-4[8:1],{2}8h[4:1],
{4}2q5[2:1],{8},,,,7,8,
{1}1qq5[4:3],
{8}A6,E7,E8,E6,C,E2,A5,E5,
E4,E6,C,E2,A6,E7,{4}E8h[4:1],
{8}A2,E3,E4,E2,C,E6,A1,E1,
E8,E2,C,E6,A2,E3,{4}E4h[4:1],
{8}A6/E6,E7,E8/A8/E1,E6,C,E2/A1/A2,A5,E5,
E4/B3/A3,E6,C,E2/A1/A2,A6,E7,{4}A8/E1/E8h[4:1],
{8}A2/E2,E3,E4/A4/E5,E2,C,E6/A5/A6,A1,E1,
E8/B7/A7,E2,C,E6/A5/A6,A2,E3,{4}A4/E5/E4h[4:1],
{8}7,7,7,7,7,7,7,{16}7,6,
{8}5,5,5,5,5,5,5,{16}5,4,
{8}3,3,3,3,3,3,3,{16}3,2,
{8}1,1,1,1,1,1,1,1,
1/2,2,2/3,2,2/8,2,4/2,2,
5/7,7,7/1,7,7/6,7,7/8,7,
{24}1,2,3,8,,,5,4,3,6,{96},,,,,,,,{32}1,8,7,6,{8}4,{32}1,2,3,4,{8}8,
{1}1x/7h[4:3],
{4}3/4,5/6,2/4,5/7,
1-3[8:1]/8-6[8:1],1-5[8:1]/8-4[8:1],1/8,1b/8b,
{8}6/3-8[8:1],4,{4}3-5[8:1]/6<1[8:1],3/6-2[8:1],{8}7-4[8:1],8,
{4}7/1-5[8:1],{8}6/1-3[8:1],7,{4}1/8<5[8:1],{8}8b/2,{24}3,4x,3,
{4}4-8[8:1],4>1[8:1]/7-5[8:1],4/7-3[8:1],{8}7/8,1,
{4}2-5[8:1],{8}2/5,6,{16}7,5,7,6,{8}8-4[8:1],1/7,
{4}8/2-6[8:1],2/7-3[8:1],7/1-5[8:1],{8}1b,8b,
{16}7,6,{8}7,{16}4,5,{8}4,{16}6-1b[8:1],5,7,5,{4}6b,
{8}4b>2[8:1],4,{16}1q5[8:1],8,{8}7,{24}1/5,6,7,8,,,{8}3/7-4[8:1],3,
{4}7/3,{8}2/6,6,{24}6/2b,3,4,5,,,{8}7/3b,6/2b,
1/5<7[8:1],5,{16}8p4[8:1],1,{8}2,{24}8/4,3,2,1,,,{8}6/2,6,
2/5,{16}5/2,6/3,{8}4-8[8:1]/7-5[8:1],4/7,,,{4}6/2,
{8}3>1[8:1],3,{16}8q4[8:1],7,{8}6,{16}5x,6,{8}7,8x<5[8:1],4,
{24}4b,3,2,1,,,{8}8x>3[12:1],4,{24}4b,5,6,7,,,{8}8x,4,
3/8-4[8:1],2,{4}8/1,{8}2,2/4,3,6/5,
{16}7bh[8:1]/8bh[8:1],,,2bh[8:1]/1bh[8:1],,,{8}5b/4b,{2}2b-5b[8:1]/7b-4b[8:1],
{8}7/2,6/3,{4}5/4,{16}4/3h[16:3],,,4,{8}3,5/4,
{16}6/7h[16:3],,,6,{8}7,5/6,{16}7/4h[8:1],,,3/6h[8:1],,,5/2,3/6,
{32}4/7,8x,1x,2x,{16}3x,5x,{4}4bx/6bxh[4:1],{16}4bh[16:3],,,5b,{8}4,5/6,
4/2bh[8:1],{16}5,3b,{8}6,6,6/4,6/5,7/8,1/6,
2,2,2,2,2,2,{32}E7,B6,B5,E5,,,,,{16}2,
1,3,8,5,6,4,7,2,5,3,4,{32}E3,B2,B1,E1,{96},,,,,,,,,,,,{24}5,
6,7,8,1,2,6,7,8,1,2,3,7,8,1,2,3,4,8,1,2,3,4,5,
{4}Ch[4:3],,,B6/B2/B8/B4,
E
