&title=多次元宇宙融合論
&artist=TAKIO feat. つぐ
&first=0.39
&des=QVPK feat. ゆき/KONDOU feat. あざ
&des_5=QVPK feat. ゆき
&des_6=KONDOU feat. あざ
&lv_5=14+
&lv_6=14+
&inote_5=(234)
||
qvpk
{4}3/4,1/2,7/8,6/5,{16}E5,B4,B3,E3,E7,B7,B8,E1,Ch[4:1],,,,{16}8,,,8,,,7/8,,6/1^4[8:1],,,,{4}5v3-8[8:3],,,{12}4,7,3,5,2,6,{4}1x,{6}3/4,3/4,3/4,{8}2,2,8,,7/4,,{16}6,5,,3,{8}4,5h[2:1]/2h[8:3],,,,,{16}6/8,,,5/1,,,4/2,,{4}4V61[4:1]/2h[4:1],,3>4b[2:1],Cf,,,{8}7,7^4[8:1],,3,3-7[8:1],,8h[2:1],,1,,5,5^2[8:1],,1,1-5[8:1],,4h[4:1],,6,,7/3,,2,2^5[8:1],,6,6-2[8:1],,1h[2:1],,8,,4,4^7[8:1],,8,8-4[8:1],,5,,{16}6,5,6,,{4}7h[2:1]/4,,,
||
zyk
{16}3,,2/4-6[8:1],,,,1,,,,7/8,,1>4[4:1]/6,,,,4<7[4:1],,,,8,,,,1,,1V75[4:1],,,,2x,,
{16}3h[4:1],,,,4,,,,2-6[8:1]/5,,,,7-4[8:1]*-3[8:1],,,,
{16}7b,,,,2x/4xqq7[2:1],,,,1,,,,1,,,,
{4}8xh[4:1],7xh[4:1],6xh[4:1],{16}5,,6,5,
{16}4bx/7bx,,6,,3,4,2bx/5bx,,1,,7-5[8:1],,8-4[8:1],,7b-3[8:1]b,,
{16}8bx,,7bx,,1b,,,,2x/6x,,8V64[4:1],,,,
{16}2/8,,,,3,,2x/3x,,,,1-4[8:1]*-6[8:1],,,,1,,,,
{16}3,,3<6[8:1],,,,7h[4:1],,,,8-4[8:1],,,,8,,
{16}7,,,,6/5h[2:1],,,,B5,,,,E4,,,,
{16}1h[2:1]/2,,,,B2,,,,B6,,,,7/8h[2:1],,,,
{16}E6,,,,B4,,,,2x/4x,,3,4,3,,5,,4/6-1[8:1]b,,,,6x/2,,3,4,5,6,7,8,1/5,,,,
{16}D2/D6,A2/A6,D3/D7,A3/A7,4bx/8bx-4[8:1],,,,8,,,,1,,2/4-6[8:1],,,,,,3,,,,
{16}4V25[4:1]/6-1[8:1],,,,4/6,,,,
{16}8x,,,,7,,5V31[4:1]/6V42[4:1],,,,,,,,,,
{16}7x<4[4:1]b/8x,,,,4>1[4:1],,,,1<6[4:1]b,,,,6>3[4:1]/A1f,,,,
{16}3>8[4:1]b/A6f,,,,8/A3f,,,,4,,,,5/7,,,,
{16}4,6,5,,3/7,,2,,4,3,1,,2/8,,7,,{12}5,6,4,5,3,4,
{16}2bh[4:1],,,,1,,1p4[4:1],,,,2,,,,3,,3p6[4:1],,,,4,,,,
{16}5,,,,7,,7,,6-8>1-3[4:1]/5,,,,5,,5,,4,,4,,3/5,,,,3-5[8:1]/5,,,,7-4[8:1],,,,
{16}1-5[8:1],,,,1,,6-2[8:1],,,,6,,3-8[8:1],,,,
{16}3,,7-4[8:1],,,,7,,3,,3,,2/4,,1,,
{16}7,,5,,6,,2,,4,,3,,5h[8:1]/7h[8:1],,,,
{16}1h[8:1]/8h[8:1],,,,2h[8:1]/4h[8:1],,,,4h[8:1]/5h[8:1],,,,5h[8:1]/7h[8:1],,,,
{16}1h[8:1]/8h[8:1],,,,2b/C,,,,
{8}2/4,2,2,2,2,4/2,4,4,4,4,5/4,5,5,5,5,5/7,8,1/2,3,4/5,6,7/8,
{6}7/8,1/6,{12}2>5[8:1]/5v8[8:1]b,,,{24},{4}2bx/5bx,
{8}5x/7x-4[8:1],{6}7,3,2,{16}1b,,,,
{4}1h[4:1],2h[4:1],3h[4:1],4h[4:1],5h[4:1],6h[4:1],7h[4:1],
{16}8,,1,,,2,,,3,,,4,3,2,1,8,7,6,5,4,3,2,C,,,,,,
||
qvpk
{8}5h[8:3]/6h[8:1],,,6h[8:3],,4,4^7[4:1],,3h[4:1],,,,2h[8:3],,8,8h[8:3],,1,1^6-2[2:1],,3,,3,,4,,4>5[1:1],,,7h[4:3],,,,,,,,7,6h[16:1],6h[16:1],{16}E4,E3,E2,E1,E8,{12}E7,E6,{48}E5,,,,,,,{16}D4,,,D3,,,{2}D2/C,{8}2h[4:1],,5,3h[4:1],,6,4V28[4:1],,B6,,C,,8,7,6h[4:1]/1,,5,,3,4,2/5-1-7-4[2:1],,B2,,C,,1^2-4^5[8:3],,,5^6-8^1[8:3],,,1,,,,8,,6/2,,4/3,2,5/4,3,6/5,7,8-4[8:1]/1,,{4}1h[4:3],3hx[4:1],,4h[4:3],2h[4:1],,3h[4:3],5h[4:1],,6h[4:3],4h[4:1],,5h[4:3],7h[4:1],,8h[4:3],6h[4:1],,7h[4:3],1h[4:1],,8<1[2:1],,,
(234){4}4hx[4:3],2,{16}1,8,7,6,
(220){4}5h[4:3],7,{16}8,1,2,3,
(210){4}4h[4:3],3,{16}2,1,8,7,
(200){16}6h[4:3],,,,5,,,,7,8,1,2,{4}3h[8:1],{36}2/4,,,,,3,,4,,{12}3x,2x,1x,8x/7x,6x,5x,4xh[8:1],,,{36}5/3,,,,,6,,5,,{12}6x,7x,8x,1x/2x,3x,4x,
(234){8}5x<3[2:1]/6xh[4:3],,,,,,,,8b/1b,,,,{16}7/3,6,5,4,3,2,1,8,7bv4[16:3],,,4q1[16:3],,,2,,,,3,,8/2,,,,2^5[16:3],,,5-1[16:3],,,6,,7h[16:3],,,,,,6/2,,5/3-6[16:3],,,6-1-4[8:3],,,8,,8h[4:1],,,,,,,,8/3,7,6,5,4/8-4[8:1],3,2,1,8/5,,,,2,,,,2v5[16:3],,,5p8[16:3],,,7,,,,6,,1/7,,,,7^4[16:3],,,4-8[16:3],,,3,,2h[16:3],,,,,,3/7,,4/6-1[16:3],,,1-5[16:3],,,5>8[8:3],,4h[4:1],,,,,,,,3h[8:1],,6,4,5h[8:1],,3,4,2h[8:1],,,,4,5,6,7,8bp2[16:3],,,2-7^4[8:3],,,3h[4:1],,,,,,2,,,,1q7[16:3],,,7-2^5[8:3],,,6,,6h[16:3],,,,,,7,,8/3,,,7/4,,,6/5,,5/4,,,4/3,,,5/2,,6bx-3[8:1]/1bx-4[8:1],,,,,,,,5,6,7,8,4,3,2,1,7xh[4:1]/8,,,5,5,,6,,7h[4:1]/4,,,,5,4,3,2,1xh[4:1]/6,,,4,4,,2,,5/1h[4:1],,,,6,7,8,1,2xh[4:1]/3,,,4,4,,1,,8h[4:1]/5,,,,3,2,1,8,7xh[4:1]/6,,,5,5,,8,,1h[4:1]/4,,,,{32}5x,6x,7x,8x,1x,2x,3x,4x,{1}5bxpp2[4:7]/8bxqq3[4:7],,{2},{8}5/4,4-2[8:1],,6,6-4[8:1],,3,,5/2,,{16}E3,B3,B4,,E7,B6,B5,,C,,,,{8}7/1,7-4[8:1],,3,3-7[8:1],,8,,6/1,,5/3,3-8[8:1],,7,7-3[8:1],,1,,4/2,,3/5,5h[4:1],,4,4h[4:1],,6,,7-2[8:1]/5,,{16}C,,,,{8}4bpp6[156#6:1],,,5bq3[156#6:1],,,4b>6[156#4:3],,,5bh[8:9],,,{1},Ch[16:1],
||
zyk
(180)
{12}B2/B3/E3/B7/B6/E7/Cf,,,,,2x/8x,
{16}7,{24}3,5,4,{48}6h[48:5],,,,,2h[48:5],,,,,8h[48:5],,,,,{12}1,8,5,6,4,{24}1,2,
{14}1h[14:1],2h[14:1],8h[14:1],3h[14:1],7h[14:1],4h[14:1],6h[14:1],
{8}5,{16}7,8,6,1,{32}E2,D3,E4,D5,E6,D7,E8,D1,{12}D2/E2/A2,7h[12:1],
{24}3h[6:1],,,,8,,,{12}8,8,{24}1,8,1,,1,,8,1,8,,1,8,1,,8,1,8,,
{6}2x/7x,{12}3,4,2x/5x,6,5,4x/7x,2,1,3x/8x,4/7,{8}5/6,5/6,
{96}6,,,,,5,,,,,6,,,,,5,,,,,7,,,,,4,,,,,7,,,,,4,,,,,
{6}C,1/8,{8}2/7,2/7<4b[8:1],,{16}E3,E2,{4}E1,{12}8h[12:1],4h[12:1],2h[12:1],
{16}6,,E2,E3,E4,E8,E7,E6,{24}3,4,3,,6,5,6,,3,4,2h[12:3],,8,7,6,5,4,
{24}3h[24:7],,,,,,,
{16}2,,,1/4,,,5/8,,,6/7,,,4-1[8:1]/5-8[8:1],,,,{32}4b/5b,E5,Cf,E1,,,,,
{16},,,,{1}1s5V73[2:1]/8z4V26[2:1],{12},
{12}4/5,3,3,2/4,{24}3,4,{12}3,2/5,6>3[8:1],5/7,8,
{24}6x/1x,,,,,{64}2bx/8bx,,,,,,,,,,,,,1bx/7bx,,,,,,,,,,,
{8}6bx/8bx,{16}1,7,2,6,3,5,
{8}4h[8:1],{64}C,,,,,,,,,,,,1h[8:1],,,,,,,,,,,,
{12}2/8,3/7,4/6,5,3,7,{8}1h[8:7],,,
{16}B5,B6,E7,,,,,,,,
{8}2b/7b,2/7,
{16}6b,4,5,4,7b,4,{8}5,{24}4bx,5,6,7,8,1,
||
qvpk
{16}2b-5[8:1]/5b,,6,6,2,,8,,7-3[8:1],,4,4,7,,2,,1^4[8:1],,5,5,1^6[8:1],,5,5,1,,4,,5h[4:1]/3,,,,4b-8[8:1],,6,6,4,,5,,5-1[8:1],,3,3,5,,4,,4,3,2,1,8/4,7,6,5,4-1[8:1]/7-4[8:1],,,,7/4,,,,5b/2b,,,,{12}3,3,3,4,4,4,5,5,5,{8}6h[4:1],,{16}5,4,3,2,1-5[8:1]/8,,,,7-3[8:1]/1,,,,7b/2h[4:1],,,,4,5,6,7,8V64[4:1],,,,8/5,4,3,2,1,,1/5,,3,4,,6,5,,6/4,,7/3,,,,{24}2,1,8,7,6,5,{16}4bV26[4:1]/8b,,,,6-1b[8:1]/4,,1,8,7h[8:1],,,,7-4-8-2[8:3],,3,3,7,,2-6b[8:1],,2,,3,4,5h[8:1],,,,5-2-4-8[8:3],,7,7,5,,8-3b[8:1],,7,,6,,5,6,7,8,1V75[4:1],,,,1/5q1[4:1],4,3,2,1^4b[4:1],,,,2,,,,{8}2-5[8:1],{16}5,5,{8}2-6[8:1],{16}6,6,{8}2-7[8:1],{16}7,7,{8}2,,8-4[8:1],,8<1b[8:3],,,,,,
(234){8}5b,5h[4:1],,4,4h[4:1],,6-2[8:1],,3,,1,1h[4:1],,8,8h[4:1],,2-6[8:1],,7h[4:1],,1,,5,5-1[8:1],,4,4-2[8:1],,8-4[8:1],,1,,2,2-6[8:1],,7,7-1[8:1],,4-8[8:1],,5,,{16}6/1,2,3,4,{8}5b/7b,5-3[8:1],,6,6-2[8:1],,1-5[8:1],,4-7[8:1],,3,3-6[8:1],,8,8-3[8:1],,5-1[8:1],,7-4[8:1],,8,,6b/2b,6<3[8:3],,3,3<8[8:3],,1,,1,,2,3,4/7,6,5/3h[4:1],,5b,7b/1b,4b/6b,8bh[4:1]/2b,{32}E2,B1,B8,E8,,,,,
&inote_6=(234)
{8}3-5[8:1],,6-3[8:1],,2-6[8:1],,8h[8:2],,{16}4,3,2,1,8qq8[4:1],7,6,5,4,,,,2h[16:3],,,3h[16:3],,,4,,5-1[8:1],3,5,3,5,,,,{12}E5,B4,B3,{4}6h[8:2]/2x,{12}3,4,3,5,4,5,3h[8:2],,,6b,,4b,,2b,,{12}1,8,7,{16}1-5[8:1]*-6[8:1]/3,,,,1,,,,4x,3x,2x,6x,5x,4x,8hb[2:1],,,,,,,,,,24,,,54,,,75,,8h[8:4],,,,6,,6,,,,,,{24}7b/1b,2x,3x,4x,5x,6x,7x,8x,1x,2x,3x,4x,5x,6x,7x,8x,1x,2x,
{16}3b/7b,,7V51[8:3],,,,7/1,,,,3,,3-7[8:1],,,,34,,,,1/5,,1V37[8:3],,,,17,,,,5,,5,,8,,1-5[8:1],,2,,31,,,,
6/2,,2V48[8:3],,,,2/8,,,,6,,6-2[8:1],,,,65,,,,8/4,,8V62[8:3],,,,82,,,,4,,4,,1,,8,2,8,2,7-3[8:1],,,,,,,,E1,,,,
2b,,2pp1[8:3],,,,5,,,,6,,6p4[8:3],,,,2,,,,2,,,,3,,3pp1[8:3],,,,8,,,,7h[8:3],,,,8,,8-4[8:1],,,,5-7[8:1],,,,3,,,,3>5[8:4],,,,,,5,,,,4,,4h[8:2],,,,3h[8:2],,,,1,,,,7,,5,6,5-3[8:1],,,,7,,7-5[8:1],,,,8,,8,,,,1,2,3,4,8h[8:2],,,,
3b,,3qq4[8:3],,,,8,,,,7,,7q8[8:3],,,,3,,,,3,,,,2,,2qq4[8:3],,,,5,,,,6h[8:3],,,,5,,5p1[8:1],,,,8p4[8:1],,,,3,,,,2>8[8:4],,,,,,8,,,,1,,1>7[8:4],,,,,,,,8,,,,1,,,,2,,24,,5,,6h[8:2],,,,5,,5,,8,,7,1,7,1,8h[8:2],,,,,,,,
6b/2b^5[8:1],,,,8,,8p3[8:1],,,,2,,2-6[8:1],,,,5-1[8:1],,,,4,,,,7-3[8:1]/3,,,,8,,8>4[8:3],,,,5,,,,6,,6-3[8:1],,,,2h[8:2],,,,1,,,,8<2[8:4]/2,,,,,,1,,,,8,,8p2[8:3],,,,,,,,1,,,,8,,8,1,8-6[8:1],,,,4,,4h[24:5],,{12},5,3,6,2,7,2h[8:2]/8h[8:2],,,,,,
{16}3b/7b,,7^4[8:1],,,,2-5[8:1],,,,6,,6q3[8:1],,,,4-8[8:1],,,,5,,,,2/7,,6,,5-8[8:1],,4,,3,,2,,1-4[8:1],,8,,7h[8:2],,,,5h[8:2],,,,6,,,,6b/4,,3,4,2,,2,1,2h[8:1],,,,7b/3b,,6,5,7,,7,8,7h[8:1],,,,15,,1,,62,,6,,73,,3,,8^5[8:1]/4^1[8:1],,,,8bq4[8:1]/4bq8[8:1],,,,8b/4b,,,,
{4}1b-5[8:1],1/2b-6[8:1],2/3b-7[8:1],3/4b-8[8:1],4/5b-1[8:1],5/6b<4[2:1],{8}E5,E6,E7,E8,E1,D6,D7,D8,D1,D2,A6,A7,A8,A1,2,4,3,5,4,6,5,8,{6}1/7,2/4,5/6,{8}4x/7x,8<5[8:1],,3/8,{6}2-6[8:1],1,4,{4}7h[4:1],{12}5,4,3,2/6,5,4,3/7,6,5,4/8,7,6,5/1,2,3,4/1,2,3,4/8,7,6,{8}1/5,4/8,3/7,2/6,{16}1,5,2,6,3,7,4,8-4[8:1],5,1,4,C,{2},
1bv4V26<8-3-5[2:3]
,,{4},,6-2<8-4-7V51b[4:7],,,,,,,2V47>4-8[4:5],,,,,,,{16}7,1,7,1,7,1,{12}8,1,{48}8,,,,{8}1,,8,{2}2b,{8}5/7qq8[8:3],,4/7,{4}3qq4[8:3],{8}3,,,8<4[4:1],,4V61[4:1],,1,2,3-5[8:1],8,3-8[8:1],7,3,6,6>2[4:1],,2<6[4:1],,6pp5[8:3],,4h[8:1],,3h[8:1],,,2,1-5[8:1]/5,,1/7-4[8:1],,3-7[8:1]/7,,8-4[8:1]/3,,1/8,1,,{16}2,1,{8}2,3/8,4/7,5/6,
{4}4/8-4-6[2:1],,B1,2-6-8[2:1],,B3,4-8-3[2:1],,A5/B5,6-2-5[2:1],,B7/A7,8-4-6[2:1],,A1/B1/E2,2-6-8[2:1],,3,4>8[2:1],5,6,7hx[2:1],,1,3/8,{8}7,5/6,4/5,,
(220)
3x/4x,4/5,{16}6,5,6,5,6,,4/7,,
(210)
8x,,1/2,,3,4,3,4,{8}3,2/5,
(200)
1x,7/8,{12}6,5,7,3,4,2,{18}8x,,,,,,,E2,B2,{9}B3,5,6,{12}4,7,5h[18:6],,,,{18}8,7,6,{12}3,4,2,5,4,6,
(234)
{8}1-6[8:1],2,1/3-5[8:1],,3-8[8:1],7,3,,{2}1hb[8:7]/5b,{32}A4,D4,A3,D3,A2,D2,,D1,A8,D8,A7,D7,{8}A6,
{16}2bx/5bx,,4,3h[8:1],,5,4h[8:1],,6,,,,4/6,7,8,1,3V51[4:1],,,5,3,,6,,7-4-8[4:1],,,1,7,,2,,2h[16:3],,,1,8,7,3,,{8}7bp4[4:1]/4b,,,,{16}3,,,2/5,,,5qq3[8:1]/6,,{8}4/5v8[8:1],,,4x,{16}4/7,,5,6h[8:1],,4,5h[8:1],,3,,,,5/3,2,1,8,6V48[4:1],,,4,6,,3,,2-5-1[4:1],,,8,2,,7,,7h[16:3],,,8,1,2,6,,{8}2h[4:1]/5b,,{16}4x,3x,2x,1x,8b,7,6,5,8b,1,2,3,{8}4/7,3/6,2/5-1b[8:1],4,
{16}3b/5b,,,2-5[16:3]*-6[16:3],,,4/8,,{4},{16}4x,3x,2x,1x,6V48[4:1]/8,,,2,6,,1,,2-6b[8:1],,,7,2,,8,,{16}5/7b,,,1/8b,,,2b/4,,,4b/5,,,5/7b,,8,,1/2,,3,4,3,,4/5,,5/6,,7,8,7,,2>5[8:1],1,2,,,,,1b,2,3,7b,8,1,5b,6,7,8,1,2/5b,,5b,4,3,7b,6,5,1b,8,7,3b,2,1,8,7,6/4b,,4b,5,6,2b,3,4,8b
,1,2,6b,7,8,1,2,3/5b,,5b,4,3,7b,6,5,1b,8,7,3b,2,1,8,7,
{2}6s2[2:3]*V48-2[2:3]/2b,,,,{8},,3h[1:1],,4,4,,5,5,,6,,{12}4/6,,,E4,B3,B2,E5,B5,B6,C,B8,A8,{8}7,7h[8:5],,1,1,,2,,2/8,,3,3h[8:5],,1,1,,8,,8/2,,7,7h[4:1],,5,5h[4:1],,4,,3/5,,{12}E4,E5,E6,{8}7b-4[8:1],,72,3b-8[8:1],,3/5,6b-1[8:1],,61,2>4q5<2[1:1],,,{1},
Ch[64:1]/B1h[64:1]/B2h[64:1]/B3h[64:1]/B4h[64:1]/B5h[64:1]/B6h[64:1]/B7h[64:1]/B8h[64:1],
(180)
{24}8b/1b,72,63,{16}5hx[4:1]/4hx[4:1],,,,,,{24}2b,6,2,6,2,6,2x,,3x,,4x,,{12}7b,7,5h,8,8,2h,{14}4b,2h,6,4h,8,2h,6,{16}4b<7[8:1],5,3,4,{12},,,{32}3b,4,5,6,7,8,1,2,{12}3x/7x,3x/7x,3x/7x,{24}2b/6b,,2,3,4,,6,5,4,,1,,{32}7b,6x,5x,4x,1-5[8:1],2x,3x,4x,1,8x,7x,6x,1,,,,{12}7bhx[12:2],,8x,6h,8,6,4b,8h,2,6h,2,4h,{8}6bv7[8:1],6/1v2b[8:1],,,{12},,4xv3[8:1]/8xv5[8:1],,4/8,,{16},,1b/7b,,,,3x,4x,5hbx[8:1]/2hbx[8:1],,,,{12}6x,5x,6x,{16}7bx/4hbx[8:1],,6,3,5,2,4,1,{32}5b,D6,A6,D7,A7/B7,D8,A8,D1,A1/B1,D2,A2,D3,A3/B3,D4,A4,D5,
{16}A5/B5/Ch[8:2],,,,8h[8:2],,,,3-8b[12:1],,,5b-2[12:1],,,7-4b[12:1],,,1b-6[12:1],,,3b,,,,Ch[8:2],,,,,,,,{48}7bx^6pp3[8:5]/1bx^2qq5[8:5]b,D2`D7,A2/B2/A6/B6,D3`D6,A3`A5,D4`D5,{16}A4f/B4,,,,,,,,,,,,,,{24}4/7,,6x,5,6,,3x,4,3,,5x,4,{12}5,3h[12:1],7,62,51,48,{16},,{48}2hb[16:1]/6hb[16:1],,,,,,,,,1hb[16:1]/5hb[16:1],,,,,,,,,{16}4hb[16:1]/8hb[16:1],,51,62,73,84,1/5-1[8:1],62,,,8bp3[12:1],,,2b-6[12:1],,,5bh[8:1],,,,{12}85,16,27,{4}8bV26[8:4]/3bV15[8:4],,,,{16}64,,53,,2,1,,4,5,,68,,{32}1,2,3,4,7,6,5,4,
{16}2b-5[8:1],,1-6b[8:1],6,2,,1,,4b-2[8:1],,5-1b[8:1],6,4,,5,,3b^5[8:1],,2-6b[8:1],8,3,,2,,4b-8[8:1],,{24}3-6[8:1]b/7,26,15,84,,,3,,,{16}7b-4[8:1],,8-3b[8:1],3,7,,8,,5b-7[8:1],,4-8b[8:1],3,5,,4,,6b^4[8:1],,7-3b[8:1],1,6,,7,,5b-1[8:1],,{24}6-3[8:1]b/2,73,84,15,,,6,,,{24}2b,,,4,3,5,4,,4,,46,,6,,6,,68,,8,,8,,28,,{16}1b-5[8:1],,{24}4,3,2,1x/8x,,,4h[8:1],,,8b-4b[8:1],,,5,6,7,8x/1x,,,5,,,{16}2bv5[8:1]/6b-1[8:1],,,,26,,,,3<6[8:1]/7,,8,8,3,,7,,8b/4b,,2,1,3<6[8:1],,7,7,3>8[8:1],,8-4b[8:1],,3x,,,,
{16}7v6[8:1],,6>3b[8:1],2,7b,,1,,2b-4[8:1],,4v1b[8:1],5,6,7,8,,8v2[8:1],,2<6b[8:1],3,4,5,6,,4b-7[8:1],3,2,1,4-8b[8:1],1,2,3,4b/6,,7,,1,,8/3,,7b-5[8:1],,5v8b[8:1],4,3,2,1,,1v7[8:1],,7>3b[8:1],6,5,4,3,,5b-2[8:1],6,7,8,5-1b[8:1],8,7,6,{8}5b/3,2,8,1/7,6>3[8:1]/2,{16}1,1,{8}6,2,1b/5b,{16}7,8,6,,2,1,{2}4h[4:1]/8h[4:1],
(234)
{8}3b,2v4[8:1]/1,,2/8,7-1[8:1],,5-2[8:1]/7,,5/6,,8,1/7v1[8:1],,3/7,4-2[8:1],,4/8,8,7,7,1/6,1/6,2/5,2v4[8:1]/5,,2/5,6-1[8:1],,3-5[8:1]/6,,3/7,,6/8,6/8,,1/3,1/3,,4/5,4/5,{12}3h,6h,4h,4h,5h,3h,{8}6b,7v5[8:1]/8,,7/1,2-8[8:1],,4-7[8:1]/2,,4/3,,1,8/2v8[8:1],,6/2,5-7[8:1],,5/1,1,2,2,8/3,8/3,7/4,7v5[8:1]/4,,7/4,3-8[8:1],,6-4[8:1]/3,,6/2,,3/1,2/8,,8/6,1/7,,4/5,3/4,2>2[4:1]/3,2/1,{32}E3,E4,E5,E6,E7,E8,E1,E2,
