&title=Megameteor
&artist=Sakuzyo
&first=0.11
&lv_5=14
&des=flawi
&inote_5=
(187){4},,,,{1}4b>5[4:13],
5,
6,
{2}7,{4}8,3/7,
{8}6,4,5,3h[8:1],5,4,6,3h[8:1],
6,4,5,2h[8:1],5,4,6,3h[8:1],
7,6,5,4h[8:1],6,5,4,3h[8:1],
7,6,5,2h[8:1],6,5,4,3h[8:1],
{16}5b<8[8:1],,,2,{8}5,3,{16}6<1[8:1],,,3,{8}6,4,
{16}7>2[8:1],,,5,{8}7,4,{2}3-6[8:1]*-8[8:1],
{16}4>1[8:1],,,7,{8}4,6,{16}3>8[8:1],,,6,{8}3,5,
{16}2<7[8:1],,,4,{8}2,5,{2}6p2[8:1]*q2[8:1],
{8}3/1,2,7/4,6,5/3,2,8/4,5,
{16}1,6,1,6,1,5,2,4,3,6,5,7,4,8,3,1,
{4}2bw6[8:1],2b,8b<5[8:1],{8}8b/3b,4bw8[8:1],
,4b,,6b/2b,{4}8b<5[8:1]/4b>1[8:1],4b/8b,
4V68[4:1],{8}4/8-4[16:3],1,{4}2-6[8:1],2,
{8}7/4,{16}6,5,{8}6,{16}7,5,{8}7,{16}4,6,{8}4,{16}3,5,
{4}3V14[4:1],{8}4-8[16:3],5,{4}7-5[8:1],7,
{8}2h[8:1],4,3/5,6/4,7h[8:1],1h[8:1],3h[8:1],5h[8:1],
{4}7V51[4:1],{8}7/1-7[8:1],2,{4}3-1[8:1],3,
{8}2/5,{16}5,3,{8}5,{16}4,2,{8}4,{16}3,5,{8}3,{16}2,4,
{4}2V41[4:1],{8}1-5[8:1],8,{4}7-3[8:1],7,
{16}5h[16:1]/2h[16:1],,,7h[16:1]/4h[16:1],,,{8}5h[16:1]/1h[16:1],{16},,1,5,2,6,3,7,
4b-8[8:1],,,5,{8}4,6,{16}7-3[8:1],,,8,{8}7,1,
4b/2b,1,3/5,7,{16}4,6,4,6,3,5,3,5,
2b-5[8:1],,,6,{8}2,7,{16}8b-4[8:1],,,3,{8}8,2,
{16}1,2,3,4,8,7,6,5,4,3,2,1,8/4,3/7,2/6,1/5,
4b<7[8:1],,,8,{8}4,1,2-4[32:3],{16}3,8,{4}2,
{8}7b/5b,{16}6,4,6,4,6,4,7>5[4:1],5,7,5,{4}7,
{8}1b,{16}2,6,2-4[8:1],6-8[16:3],2,6,{8}2-6[8:1],6,{4}2,
{16}7b-3[16:1],,,7b/1b-5[16:1],,,{8}1b,{16},,6/3,7/2,{4}8b-4[8:1]/1b-5[8:1],
{1}8b<1[4:11]/1b>8[4:11],
,,,{8}7V13[2:1],
,,6h[8:3],,,,,6V82[2:1],
,,5h[8:3],,,,,3>7[2:1],
,,4h[8:3],,,,,2<6[2:1],
,,3h[8:3],,,,,6/2,
{16}3,5,{8}3,{16}3,5,{8}3,{16}3,6,{8}3,{16}3,6,
{8}3,{16}3,7,{8}3,{16}3,7,{8}3,{16}3,8,{8}3,{16}6,4,
{8}6,{16}6,5,{8}6,{16}6,5,{8}6,{16}6,4,{8}6,{16}6,4,
{8}6,{16}6,3,{8}6,{16}6,3,{8}6,{16}6,2,{8}6,{16}6,1,
7b,8,7,8,6,1,6,1,5,2,5,2,4,3,4,3,
6,5,6,5,7,4,7,4,8,3,8,3,1,2,1,2,
{32}1b,8,7,6,5,4,3,2,1,8,7,6,5,4,3,2,1,8,7,6,5,4,3,2,1w5[2:1],8,7,6,5,4,3,2,
{4}1b,,,2-6[8:1],
2b/8bV64[4:1],{8}8/4-8[8:1],3,{4}2-4[8:1],{8}2-8[8:1],7,
2-6[8:1],6-2[8:1],{4}2<5[4:1],{16},,,,1,8,7,6,
{4}5V37[4:1],{8}5/7-1[8:1],6,{4}5-1[8:1],5/2-4[8:1],
{8}2/8,7,{4}6w2[8:1],6,7-5[8:1],
2V47[4:1],{8}2/7-1[8:1],6,{4}5-8[8:1],{8}5-2[8:1],3,
5-1[8:1],7,5<7[8:1]*>3[8:1],3,{4}5w1[32:3],5b,
2-4[32:3],2/5-1[8:1],5/8-6[32:3],8,
{16}5b/1b,,,3b-8[16:1]/7b-4[16:1],,,{8}7b/3b,,5,6,7,
8/4,{16}7,5,{8}7,{16}2,4,{8}2,{16}7,8,{8}7-5[8:1],8-4[8:1],
7-3[8:1],8-2[8:1],7>6[4:1],8,{4}7,1b,
{8}6/2-4[8:1],5,2,8,6/2-5[8:1],7,2,8,
{16}7,5,6,4,5,3,4,2,{4}3<6[8:1]*>8[8:1],3b,
{8}7b,{16}3,4,{8}2,{16}6,5,{8}7,{16}2,1,{8}3,{16}7,8,
{8}6-2[8:1],1,6/3-7[8:1],4,{4}3/8w4[8:1],8,
{8}6/2,2/6,3/7,7/3,4/8,8/4,7/3,7/3,
{16}6,2,6,2,5,1,5,1,{32}5b,4,3,2,1,8,7,6,{4}5b<8[8:1]*>2[8:1],
5b,1b-6[8:1]*-4[8:1],1b,{8}5b,7b/3b,
,8b/4,3b/7,6b/2,{4}5<8[8:1]/1b>4[8:1],5b/1b,
{16}1h[16:1]/5h[16:1],,,8h[16:1]/3h[16:1],,,{8}5h[16:1]/7h[16:1],{16},6h[16:1]/4h[16:1],,,{4}1b,
{16}5h[16:1]/2h[16:1],,,4h[16:1]/7h[16:1],,,{8}3h[16:1]/8h[16:1],{16},2h[16:1]/6h[16:1],,,{8}4h[8:1],7,
{16}5h[16:1]/1h[16:1],,,3h[16:1]/6h[16:1],,,{8}4h[16:1]/8h[16:1],{16},7h[16:1]/3h[16:1],,,{4}5b,
{16}4h[16:1]/6h[16:1],,,3h[16:1]/8h[16:1],,,{8}5h[16:1]/2h[16:1],{16},1b,,,3,5,3,5,
{8}3,7-4[8:1],{16}7,1,{8}7,2-6[8:1],{16}5,2,2,,,5-1[8:1],
,,4,5,,3-8[8:1],,,7<4[8:1],3,,7,{8}7,3,
{16}2b>4[8:1],,,6,{8}2,7,{16}5,6,{8}4,3b/5,4/2,
{16}5b,3,5,3,6,3,7,3,8,3,1,3,8,7,6,5,
{4}4pp8[4:3],2h[8:1],3,{8}3,2,
{4}1pp6[2:1],{8}8,7,6,5,{4}4,
7qq4[2:1],{8}3,4h[8:1],,3,2,1>5[4:1],
,6,7,8>5[8:3],,6,7,8,
{4}1qq5[2:1],{8}4,4h[8:1],,,3pp8[2:1],3h[8:1],
,,7,7h[8:1],,6,5,4>6[4:3],
,6,6,6,5,5,5,5,
{16}5b,,,7b/3b,,,{8}1b/5b,{16},,7/2,6/1,{4}5/8-4[8:1],
{8}8b,{16}6,5,{8}6,{16}3,4,{8}3,{16}6,5,{8}7,{16}3,4,
{8}2,{16}6,5,{8}8,{16}3,4,{8}1,{16}6,4,{8}8,{16}3,5,
{8}1,{16}7,8,{8}6,{16}2,1,{8}3,{16}7,8,{8}5,{16}2,1,
{8}4,{16}7,1,{8}6,{16}2,8,{8}3,{16}7,1,{8}5,{16}2,8,
{8}4b,4,4,4,3/7,3/7,3/7,3/7,
6/2,6/2,6/2,6/2,5/1,5/1,5/1,5/1,
{16}1b,2,3,4,8,1,2,3,7,8,1,2,6,7,8,1,
{4}2bs6[8:3]*z6[8:3],,,7-3[8:1],
7b/4bV62[4:1],{8}4/2V48[4:1],1,{4}8,{8}7,6,
5-1[8:1],4,5,3,{16}2,3,4,5,1,8,7,6,
{4}5V38[4:1],{8}5/8V62[4:1],7,{4}5-1[8:1],5,
{8}8/4,3/7,{4}2/6-2[8:1],{8}6-8[8:1]/1-5[8:1],8,{4}6/1V36[4:1],
1/6V41[4:1],{8}8-6[8:1],7,{4}8-3[8:1],{8}4/8-5[8:1],6,
4/8-3[8:1],3V17[4:1],8/4,5,{4}6w2[8:1],6b,
{16}8,4,8,4,7,3,7,3,6,2,6,2,5,1,5,1,
5b,,,4b<7[16:1]/8b>3[16:1],,,{8}8b/4b,,8-4[8:1],1,8/2,
3b,{16}6,5,{8}8,{16}3,4,{8}1,{16}6,2,{8}6-8[8:1],2-4[8:1],
6-1[8:1],2-5[16:1],6>8[4:1],2,6,2,{4}4b,
{16}6,5,{8}7,4,8/3,{16}3,4,{8}2,5,1/6,
{16}7h,1,5,3h,{32}6,,,2,{16}8h,4,{4}1w5[8:1],1b,
{8}7b/3b,{16}6,5,{8}8,{16}2,4,{8}1,{16}5,3,{8}7-3[8:1],6,
7/1>4[8:1],2,1/7,8,7-2[8:1]/3-6[8:1],6/2,{4}7b/3b,
{16}1,5,1,5,8,4,8,4,7,3,7,3,6,2,6,2,
{32}5,4,3,2,1,8,7,6,5,4,3,2,1,8,7,6,5,4,3,2,1/5,8/4,7/3,6/2,{4}5b/1bw5[8:1],
1b,7b-4[8:1]/3b-8[8:1],7b/3b,{8}1b/5b,2bq6[8:1]/6bq2[8:1],
,6b/2b,,5b/1b,{32}4b/8b-4[8:1],7,6,5,,,,,{4}8,
6b-1[8:1]/2b-5[8:1],2b/6b,4b/8b<5[8:1],{8}8b/3b,1bw5[8:1]*w5[8:1],
,1b,,7b/3b,{32}5b/1b-5[8:1]*-5[8:1],2,3,4,5,6,7,8,{4}1b,
E
