&title=ネジ巻き師と太虚鳥
&artist=lasah; sasakure.UK
&first=0
&des=UK
&des_5=
&lv_5=13+
&inote_5=(150)
{1},
{4}
6h[4:1],{8},6h[4:1],{4},6,
6h[4:1],{8},6h[4:1],{4},6,
2h[4:1],{8},2h[4:1],{4},2,
2h[4:1],{8},2h[4:1],{4},7/2,
{16}
3h[16:2],,6,5,4,,6pp6[4:1],5,4h[16:4],,,,,,,,
3h[16:2],,6,5,4,,6pp6[4:1],5,4h[16:4],,,,,,,,
7h[16:2],,2,1,8,,2pp2[4:1],1,8h[16:4],,,,,,,,
7h[16:2],,2,1,8,,2,1,8>8[75#4:7],,,,2>8[8:28],,,,
{1},,,{8},,,,,,1-5[10:1]/5-1[10:1],,
{16},,,,2-4[16:1]/4-2[16:1],,15,,,,,,24,,,,
{16}1/5,,,,5-1[10:1]/1-5[10:1],,15,,,,,,6-2[10:1]/2-6[10:1],,,,
{16},,,,7-1[16:1]/1-7[16:1],,26,,,,,,26,,,,
{16}2/6,,,,4/8-4[8:1],,8/4-8[8:1],,,,,,1b,,,,
{16}5/3h[8:1],,4,,6/3h[8:1],,7,,2h[8:1],,8,,6<7[28:1]*<8[28:2]*<1[28:3]/3h[8:1],,5,,
{16}4,,3,,4/6h[8:1],,2,,{24}6,5,4,1,,,
{16}7h[8:1]/2,,1,,6h[8:1]/2,,3,,{24}3,4,5,8,,,
{16}4/7h[8:1],,5,,3/6h[8:1],,2,,4/7h[8:1],,1,,
{16}6/2h[8:1],,8,,1>2[28:1]*>3[28:2]*>4[28:3]/7<6[28:1]*<5[28:2]*<4[28:3],,17,,,,,,
{16}4/6h[8:1],,5,,3/7h[8:1],,2,,6h[8:1],,1,,3>2[28:1]*>1[28:2]*>8[28:3]/5h[8:1],,4,,
{16}5,,6,,5/3h[8:1],,7,,{24}3,4,5,8,,,
{16}3h[8:1]/7,,8,,4h[8:1]/7,,6,,{24}6,5,4,1,,,
{16}5/2h[8:1],,4,,6/3h[8:1],,7,,5/2h[8:1],,8,,
{16}3qq3[8:2],,7qq7[8:2],,3,,7<7[100#4:10],,,,
{16},,1h[16:3],,,,,,,,1h[16:3],,,,,,
{16},,8h[16:3],,,,,,,,8h[16:3],,,,,,
{16},,7h[16:3],,,,,,,,7h[16:3],,,,,,
{16},,6h[16:3],,,,,,,,6<6[8:33]*<6[8:33],,,,,,
{16},,4h[16:3],,,,,,5,,5h[16:3],,,,,,6,
{16},6h[16:3],,,,,,7,,7h[16:3],,,,,,8,
{16},8h[16:3],,,,,,1,,1h[16:3],,,,,,2,
{16},2h[16:3],,,,,,3,,3b<6[16:2],,,,,,,,
{16}78,,6,4,8<5[10:1],,2,,
8,,1,6,2>5[10:1],,8,,
2,,7,4,8<7[32:1]*<6[32:2]*<5[32:3],,1,,
8,,3,7,2>5[10:1],,8,,
2,,7,3,8<5[10:1],,2,,
8,,1,7,2>5[10:1],,6,,
2,,7,3,8,,2V48[4:1]/6V48[4:1],,
4z8[8:1]/8,,62,,,,,,
{16}
3b/7,,2,8,4>1[10:1],,6,,
4,,5,2,6<1[10:1],,4,,
6,,3,8,4>3[32:1]*>2[32:2]*>1[32:3],,5,,
4,,7,3,6<1[10:1],,4,,
6,,3,7,4>1[10:1],,6,,
4,,5,3,6<1[10:1],,2,,
6,,3,8,4>1[10:1],,6,,
4,,7<7[100#12:29],3,5>7[8:29],,7,,
{1}5,,,{2},{4},
{16}8<7[28:1]*<6[28:2]*<5[28:3]/2>3[28:1]*>4[28:2]*>5[28:3],,,,
{16},,,,7pp1[32:5],,7,3,7-5[32:2],,,,,,,,
25,,,,3-5[32:2],,3v8[10:1],7,3-1[32:2],,,,,,,,
{16}74,,,,6qq4[32:5],,6,1,6-8[32:2],,,,,,,,
25,,,,2v5[10:1],,2,7,2-8[32:2],,,,8b,,,,
{16}
7h[8:1]/4h[8:1],,,,3,1,2,8,1,,2h[8:1]/8h[8:1],,,,7,5,6h[8:1],,2,,53,,7,1,8,,26,,5,3,4,,
3h[8:1]/6h[8:1],,,,2,4,3,5,4,,3h[8:1]/5h[8:1],,,,6,8,7h[8:1],,1,,38,,6,4,5,,36,,8,1,8,,
2h[8:1]/7h[8:1],,,,7,5,6,4,5,,6h[8:1]/4h[8:1],,,,3,1,2h[8:1],,7,,36,,4,5,2,,83,,6,5,8,,
52,,1,4,3,,6,8,7,,2h[8:1]/7h[8:1],,,,73,,6,4,8,,71,,3,5,2h[8:1]/6h[8:1],,,,3,7,1,,
{16}2b,,5,,
26,,73,,84,,1>5[8:1]/2>6[8:1],,6<1[32:5]/5<2[32:5],,12,,,,,,
73,,2,8,2,,73,,6,4,8,,6/2,,3,5,3,,6,1,6<2[16:3],,,2>5[16:3],2,,5<7[32:3],,8,,,2V46[32:5],2,,7V13[32:5],,,,,,4b<8[32:3]*>8[32:3],,,,
{16}4b,,,,
13,,48,,57,,8V64[8:1]/7V53[8:1],,4V28[32:5]/3V17[32:5],,87,,,,,,
62,,7,1,7,,26,,3,5,1b,,2/7b,,3b,6,1b,,1pp1[16:4]/4b<4[16:8],5<4[16:7],6<4[16:6],,,,,,,,7,,,,6pp6[8:2],,2pp2[8:2],,6,,2>2[99#16:17],,,,,,
{4}
2h[4:1],{8},2h[4:1],{4},3,
3h[4:1],{8},3h[4:1],{4},6>6[10:15],
6h[4:1],{8},6h[4:1],{4},5,
5h[4:1],{8},5h[4:1],{4},2/7,
{16}3h[8:1],,6,4,6,,2,4,1-5[10:1],3,1,,,,,,
{16}3h[8:1],,6,4,6,,2,4,1-4[10:1],3,1,,,,,,
{16}7h[8:1],,3,7,3,,8,5,1-5[10:1],6,1,,,,,,
{16}7h[8:1],,3,7,3,,8,5,1w5[10:1],6,1,,,,,,
{16}6,6,4,5,3h[8:1],,4,2,5,3,6-8[32:3],,,,,,
{16}2,2,8,1,7h[8:1],,8,6,1,7,1<6[8:1]*>4[8:1],,6V85[16:3]/4V25[16:3],,,,
&inote_6=
