&title=VANESSA
&artist=朱雀
&first=0.09
&lv_5=14
&des_5=奶龍
&inote_5=
(185){4},,{32}6/3,5/4,{16},,,,,,,{2}2q5[4:1],
7p4[4:1],
1q4[4:1],8p5[4:1],
3q6[4:1],7q2[4:1],
3,{4}2/5,{8}4,6/5,
{4}8/7,{8}2,{16}3,4,{8}3,{16}5,2,5,2,6,1,
6,1,7,8,7,8,7,1,6,2,6,3,5,4,5,3,
6,2,7,1,8,2,{8}7,{12}1b/8b,1/8,1/8,1/8,1/8,1/8,
1/8,1/8,1/8,1/8,1/8,1/8,{4}8b/1bh[4:1],8b,
{2},{16}7,6,5,4,1,2,3,4,
6,5,7,4,8,3,1,2,1,2,{8},{16}5,4,{8},{16}7,
8,{8},{16}2,4,{8},{16}6,5,{8},{16}2,1,{8},{16}8,
4,7,3,6,2,5,1,6,8,{8},{16}3,4,{8},{16}1,
8,{8},{16}6,5,{8},{16}3,4,{8},{16}1,7,{8},{16}5,
4,6,3,5,4,5,3,{8}6,5/4,{16}6,3,,2,
8,1,8,1,{8}8,{16}7,8,7,1,7,2,7,3,7,4,
6,4,{8}5,{16}1b,2,3,4,7,5,{8},{4}6/1,
{16}4,5,{8},{16}2,1,{8},{16}6,8,6,8,{4}6,
1/3,{16}6,5,{8}6,{16}3,4,{8},{16}6,8,{8},{16}2,
1,{8},{16}6,5,{8},{16}1,8,{8},{16}3,4,{8},{16}7,
1,6,2,5,3,4,4,4,5,{8},{16}7,8,{8},{16}2,
4,{8},{16}1,6,{8},{16}3,4,{8},{16}7,8,{8},{16}5,
6,4,7,3,8,2,1,{4}2,{16}8-4[8:1],4,6,2,
{4}8>3[8:1],8<5[8:1],8-3[8:1],8-5[8:1],
8/2-5[8:1],2/1,{16}4,8,4,7,4,6,4,5,
4,4,{8},{16}5,5,{8},{16}2,5,3,6,4,7,5,7,
1,7,5,7,1,7,{8}5,{2}6bh[16:1]/4bh[16:1],
{4},{16}1,2,3,4,8,7,6,5,3,6,4,5,
3,6,4,5,3,6,2,7,1,2,3,4,8,7,6,5,
{4}4/2,{16}2,1,2,1,{4}2-4[8:1]*-5[8:1],2,
{16}7,4,7,4,{4}7,{16}1,2,8,3,7,4,6,5,
6,5,6,4,6,3,6,2,{4}6,{16}8,4,7,3,
6,2,5,1,6,1,7,1,8,2,7,1,8,2,7,1,
8,1,7,2,6,3,5,4,{4}5bh[16:1],{8}3/4,3/4,
6/2,2/6,{16}7,6,5,4,3,2,1,3,{4}1,
,3h[8:1]/4h[8:1],6h[8:1]/2h[8:1],1h[8:1]/7h[8:1],
{16}8,1,7,2,8,1,7,2,8,{8},{16}3,{4}4,
,{16}2,1,{8},{16}5,6,{8},{16}3,4,{8},{16}7,
8,7,1,7,2,7,3,7,2,6,1,{4}5-1[8:1],
{16}5/6,{8},,,{16}3,{4}4,{16}5,4,5,4,
6,3,6,3,7,2,7,2,8,1,7,2,8,1,7,2,
8,7,6,5,7,6,5,4,{12}3,5,3,5,{6},{4}8-4[8:1]/1-5[8:1],
8/1,3b/6bh[4:1],3b,
,{8}1/2,3/4,{16}6,8,{8}6b,{2},{8}1h[16:1]/2h[32:1],
1h[16:1]/2h[32:1],8/3,6,{4}1-4[8:1],
1/8-5[8:1],{32}8/1h[32:1],{16},{32}1h[32:1],{8},{4}3b,{8}5h[16:1]/6h[32:1],5h[16:1]/6h[32:1],
4h[16:1]/7h[32:1],4h[16:1]/7h[32:1],3h[16:1]/8h[32:1],3h[16:1]/8h[32:1],{4}8b/3b,{16}6,2,7,3,
{8}8,{16}5,4,6,3,7,2,8,1,8,7,6,5,2,3,
4,5,7,6,5,4,1,2,3,4,2,3,4,5,8,7,
6,5,7,6,5,4,2,7,{12}8/1,8/1,8/1,8/1,8/1,8/1,
8/1,8/1,8/1,8/1,8/1,8/1,{16}8/1,2,3,4,7,6,5,4,
7,6,5,4,7,4,7,4,6,5,{8}6,{16}3,4,{8}3,
{16}7,8,{8}7,{16}2,1,{8}2,{16}6,5,{8}7,{16}3,4,{8}2,
{16}6,3,8,4,7,2,5,3,7,8,{8}7,{16}2,1,{8}2,
{16}6,5,{8}6,{16}3,4,{8}3,{16}7,6,{8}8,{16}2,3,{8}1,
{16}7,4,8,2,6,3,5,4,{8}5,7/4,{16}8/3,7,6,5,
4,2,4,2,{8}4,1/5,{16}1,8,7,6,8,7,6,5,
,6,5,4,3,1,3,1,3,4,5,1,8,7,2,3,
4,7,6,5,2,4,3,5,2,4,3,5,2,1,{8}2,
{16}7,8,{8}7,{16}5,2,5,2,5,3,{8}5,{16}4,6,{8}4,
{16}1,7,{8}1,{16}8,2,{8}8,{16}3,1,{8}3,{16}6,8,{8}6,
{16}5,1,6,2,7,3,8,4,6,3,{8}6,{16}2,8,{8}2,
{16}6,5,{8}7,{16}2,4,{8}3,{16}1,7,{8}8,{16}2,5,{8}3,
{16}6,5,7,4,8,3,1,2,{4}1,{16}8/2,7,6,5,
4,2,4,2,{4}4,{16}3,4,2,5,1,6,8,7,
6,1,7,8,6,1,7,8,6,1,7,2,8,3,1,2,
1,4,1,2,1,5,1,2,1,8,3,7,4,6,5,6,
4,7,2,8,5,3,{8}7,{4}2bh[4:1]/1b<1b[2:1],1b,
{2},{32}8bp5q8b[32:61]/1bq4p1b[8:15],7b/2b,6b/3b,5b/4b,
E
