&title=你看到的我
&artist=Tiktok DJ
&first=-0.608
&lv_5=14
&des_5=fuyuchan vs cheater
&inote_5=
(133.11){4},,,,6/4,
5/3,{8}3/6h[4:1],4,{4}5,
3/5,4/6,{8}6/3h[4:1],5,{4}4,
7/1,8/2,{8}7/2-4[8:1],1,{4}2/7,
2/8,1/7,{8}2-4[32:3]/7-5[32:3],{16}8,1,{4}2b/7b,
{8}Cfh[1:1],7,7,7,{16}7,6,{8}5,{64}5x-1[0.3944##0.1127],{32},,,,,,,{64}B5,
,B1,{32},,,,,,,{8}2/8,{16}6,6,{8}7/1,6/2,3-8[32:3]/5-8[32:3],6/2,
{4}5/3,{8}6/4,{16}2,2,{8}3/5,2/6,7-4[32:3]/1-4[32:3],6/2,
{4}1/7,{8}2/8,{16}6,6,{8}7/1,6/2,3>1[32:3]/5<7[32:3],5/3,
{4}5/3,{8}6/4,{16}2,2,{8}3/5,2/6,7<5[32:3]/1>3[32:3],7/1,
{4}1/7,{8}8/2,{16}3/7,4/6,{8}4/6,7/3,8-6>5[32:3]/2-4<5[32:3],7/3,
{4}8/2,{8}1/7,{16}6/2,3/5,{8}5/3,2/6,1-3<4[32:3]/7-5>4[32:3],2/6,
{4}1/7,{8}8/2,{16}8/2,7/3,{8}4v1[8:1]/6v1[8:1],{16}A8/A2,A7/A3,{4}A6/A4,
{16}3,7,3,7,3,6,3,6,{32}4,5,6,7,8,1,2,3,A4,A5,A6,A7,A8,A1,A2,A3,
{4}6bxh[4:1]/4bx-8[8:1],4-1[8:1],{8}4<7[8:1],7>2[8:1],{4}4,
5x-1[8:1],5-8[8:1],{8}5>2[8:1],2<7[8:1],{4}5,
4x-8[8:1],4-1[8:1],{8}4<7[8:1],7>2[8:1],{4}4,
5x-1[8:1],5-8[8:1],{8}5>2[8:1],2<7[8:1],{4}5,
{8}3x-7[8:1],5,3>8[8:1],8>3[8:1],3<6[8:1],6>3[8:1],7,8,
7x-3[8:1],1,7<4[8:1],4<7[8:1],7>2[8:1],2<7[8:1],3,4,
3x-7[8:1],5,3>8[8:1],8>3[8:1],3<6[8:1],6>3[8:1],7,8,
7x-3[8:1],1,7<4[8:1],1,7,{16}3,2,{8}1,5b/4b,
{32}7,6,5,4,3,2,1,8,{64}A7,D7,A6,D6,A5,D5,A4,D4,A3,D3,A2,D2,A1,D1,A8,D8f,{4}7bx/3bx,{8}7bp7b[8:3]/3bp3b[8:3],7b/3b,
{2}3b/7b,{8}6b/2b,6bp6b[8:3]/2bp2b[8:3],6b/2b,6b/2b,
{2},{8}7b/2b,5/4,7/1,{16}7/1,6/2,
{4}5bx/3bx,{8}1/5,{16}2/6,3/7,{8}4bx/8bx,4,8,{16}7/3,6/2,
{2}5bxq1[0.3381##0.2629]/1bxq5[0.3381##0.2629],{8}2b/7b,4/5,2/8,{16}2/8,3/7,
{4}4bx/6bx,{8}8/4,{16}7/3,6/2,{8}5bx/1bx,5/1,5-7[12:1],1-3[12:1],
5-1[8:1],1w5[8:1],5x,A1,{4},{8}2/4,2/4,
2/5,2/5,6/2,7/2,{16}1b,8,1,8,2,7,2,7,
{32}3b,4,5,6,7,8,1,2,3x/6x,5,4,3,2,1,8,7,{4}6bx/2bx,{8}7bp7b[8:3]/3bp3b[8:3],6b/2b,
{2}7b/3b,{8}6b/2b,7bp7b[8:3]/3bp3b[8:3],6b/2b,7b/3b,
{2},{8}2b/7b,4/5,2/8,{16}6/4,7/3,
{4}8bx/2bx,{8}8/4,{16}2/6,3/7,{8}4bx/8bx,5,1,{16}2/6,3/7,
{2}4bx-8[0.3381##0.2629]/8bx-5[0.3381##0.2629],{8}7b/2b,5/4,7/1,{16}3/5,2/6,
{4}1bx/7bx,{8}1/5,{16}2/6,3/7,{8}4bx/8bx,4/8,4-2[12:1],8-6[12:1],
4-8[8:1],8w4[8:1],4x,A8,{4},{8}3/1,3/1,
3/8,3/8,7/3,6/3,{16}4b/5b,4/5,4/5,5/4,3/6,6/3,3/6,6/3,
{32}2bx,1,8,7,6,5,4,3,2x/7x,8,1,2,3,4,5,6,{2}7bxh[4:1]/3bxh[2:1],
{4}D8/B8/B7/B6/B5/A5/D6/A8/E7f,E2/B1/A2/E3/B4/E4/A3/B3f,E8/B7/E6/B6f,3-7b[12:1],
Cf/3b>1[12:1]/7b<5[12:1],7v4[12:1]/3v8[12:1],3bx-1-5-3[3:1],{8}6-8[12:1],6,
{4}6b,{8}8-6[8:1]/1-5[8:1],6-8[8:1]/5-1[8:1],{2}8bx-4-8[4:1],
{4}3b-5[12:1],3/6-2[12:1],6bx/1bx-7[12:1],6/1-4[12:1]*-5[12:1],
1b/Cf,{8}7/2,5/4,6b/2b,7/3,2/6-2b[12:1],7/3,
{4}Cf/6b<8[12:1]/2b>4[12:1],2v5[12:1]/6v1[12:1],6bx-8-4-6[3:1],{8}3-1[12:1],3,
{4}3b,{8}1-3[8:1]/8-4[8:1],3-1[8:1]/4-8[8:1],{2}1bx-5-1[4:1],
{4}6b-4[12:1],6/3-7[12:1],3bx/8bx-2[12:1],3/8-5[12:1]*-4[12:1],
8b/Cf,{64}A8,D1,A1,D2,A2,D3,A3,D4,{48}A4,D5,A5,D6,D6,A6,{24}D7,7x,8x,1x,{48},{16}2x,{8}3xv8[12:1]/7x-4[12:1],3/7,
{4}3b/Cf/7b>2[12:1],3<6[12:1],{8}3bx/7bx-3[12:1],7,7/1-5[12:1],1,
{4}1b,{8}3>1[8:1]/4p8[8:1],1>3[8:1]/8q4[8:1],{2}3bx/4bx<6>4[4:1],
{4}2b-6[12:1],2>4[12:1]/7<5[12:1],2bx-8[12:1]/7bx-3[12:1],2/7w3[12:1],
7b/Cf,{8}7/1,5/3,6b/2b,7/3,6v1[12:1]/2-5[12:1],7/3,
{4}6b/Cf/2b<7[12:1],6>3[12:1],{8}6bx/2bx-6[12:1],2,2/8-4[12:1],8,
{4}8b,{8}6<8[8:1]/5q1[8:1],8<6[8:1]/1p5[8:1],{2}6bx/5bx>3<5[4:1],
{4}7b-3[12:1],7b<5[12:1]/2b>4[12:1],7b-1[12:1]/2b-6[12:1],2b/7b,
{64}8bx/1bx/E8f/E2f,7bx/2bx/E7f/E3f,6bx/3bx/E6f/E4f,5bxh[64:45]/4bxh[64:45]/E5f/D5f,{16},,,,,,,,,,,{4}A6/B6/C/B3/A3,
{8}7/1,{16}3,3,{8}2/8,{16}6,6,{8}7/1,6/2,3/5-8[32:3],6/2,
5/3,{16}2,2,{8}6/4,{16}7,7,{8}3/5,2/6,7/1-4[32:3],6/2,
1/7,{16}6,6,{8}2/8,{16}4,4,{8}7/1,6/2,3/5<8[8:1],6/2,
5/3,{16}2,2,{8}6/4,{16}7,7,{8}3/5,2/6,7/1>4[8:1],6/2,
1/7,{16}5,5,{8}8/2,{16}4,4,{8}7/1,5/3,8/2-5[8:1],7/1,
8/2,{16}6,6,{8}1/7,{16}3,3,{8}6/4,8/2,5/3-8[8:1],6/4,
5/3,{16}6,6,{8}5/3,{16}2,2,{8}7-3[12:1],1-5[12:1],7,1,
{16}7b,8,7,8,6,1,6,1,{32}5bx,4,3,2,1,8,7,6,5bx/1bx,2,3,4,5,6,7,8,
1bx/5bx,6,7,8,1,2,3,4,{40}5bx/1bx,2x,3x,4x,5x,6x,7x,8x,1x,2x,{4}3bx/7bx,{8}3bp3b[8:3]/7bp7b[8:3],5b/1b,
{2}3b/7b,{8}5b/1b,3bp3b[8:3]/7bp7b[8:3],5b/1b,7b/3b,
{2},{8}2b-8[12:1],{16}7,6,{8}5/2x-4[12:1],{16}7,6,
{4}2bx/5,{8}5v2[8:1],{16}3,4,{8}5bxv8[8:1],{16}7,6,{8}5xv2[8:1],{16}3,4,
{4}5bx,{8}7-1[12:1],{16}2,3,{8}4/7bx-5[12:1],{16}2,3,{8}4/7x-1[12:1],{16}2,3,
{4}4/7bx,{8}5/3h[2:1],6,7b,6,5-7[12:1],4-2[12:1],
5b-1[8:1],4w8[8:1],5,A4,,5,6/4,7/3,
{16}2b,1,2,1,3,8,3,8,{32}4bx,5,6,7,8,1,2,3,4bx/8bx,7,6,5,4,3,2,1,
8bx/4bx,3,2,1,8,7,6,5,{40}4bx/8bx,7x,6x,5x,4x,3x,2x,1x,8x,7x,{4}6bx/2bx,{8}2bp2b[8:3]/6bp6b[8:3],8b/4b,
{2}2b/6b,{8}8b/4b,2bp2b[8:3]/6bp6b[8:3],8b/4b,6b/2b,
{2},{8}3b-5[12:1],{16}8,7,{8}6/3x-1[12:1],{16}8,7,
{4}3bx/6,{8}4v7[8:1],{16}6,5,{8}4bxv1[8:1],{16}2,3,{8}4xv7[8:1],{16}6,5,
{4}4bx,{8}3-5[12:1],{16}8,7,{8}6/3bx-1[12:1],{16}8,7,{8}6/3x-5[12:1],{16}8,7,
{4}6/3bx,{8}8/2h[2:1],7,6b,7,8-6[12:1],1-3[12:1],
8b-4[8:1],1w5[8:1],8,A1,,7/2,6/3,5/4,
{16}3b,6,3,6,3,6,3,6,{24}2b,7,2,7,2,7,2,7,2,7,2,7,
{32}1b,8x,1x,8x,1x,8x,1x,8x,1x,8x,1x,8x,1x,8x,1x,8x,{8}1bxh[2:1],3,5,7,
{4}D8/B8/B7/B6/B5/A5/D6/A8/E7f,E2/B1/A2/E3/B4/E4/A3/B3f,E8/B7/E6/B6f,3-7b[12:1]/7-2b[12:1],
Cf/3b>8[8:1]/7b<4[8:1],3/7v2[12:1],3bx-1-5-3[8:3],{8}6-8[8:1],6,
{4}6b,{8}4/6,7/3,8b/2b-4[12:1],{16}2x,2x,{8}2x-6[8:1],7,
{4}2bx-8[12:1],2-4[12:1]/7-5[12:1],2bx-6[12:1]/7bx-1[12:1],7w3[12:1],
7bx/Cf,{8}6x/2x,6x/2x,1b/7b-5[12:1],{16}7x,7x,{8}7x-3[8:1],2,
{4}7bx-1[12:1],7-5[12:1]/2-4[12:1],7bx-3[12:1]/2bx-8[12:1],2-6[12:1],
2bx,{8}1-3[8:1]/8-4[8:1],3-1[8:1]/4-8[8:1],{2}1bx-5-1[4:1],
{4}6b-4[12:1],6/3-7[12:1],3bx/8bx-2[12:1],3/8-5[12:1]*-4[12:1],
8b/Cf,6/3,{2}Ch[2:1],
E
