&title=......已至。
&artist=塞壬唱片-MSR/秋田真典
&first=0
&des=新神......
&lv_5=14
&lv_6=0
&inote_5=(146)
{1},,,,2>1[4:7],,5V31V75[4:5],
{4},,4w8[8:9],,,,,,
{8}2,1,3,8,4,7,5,6h[8:9],,,,,,,,,3q5[2:3],
{8},
{32}A6,,,,
{8},,
{32}A7,,,,
{8},,
{32}A6,,,,
{8},,
{32}A8,,,,
{8},,
{32}A7,,,,,,,,
{8}7,8,6,1,5,2,4,3h[8:9],,,,,,,,,6p4[2:3],
{8},
{32}A2,,,,
{8},,
{32}A1,,,,
{8},,
{32}A2,,,,
{8},,
{32}A3,,,,
{8},,
{32},,,,,,,,
{8}1,8,2,7,4,5,3,6,8,7,1,6h[4:2],,4,,2,6pp4[2:3],
{8},
{32}E4,,,,
{8},,
{32}E2,,,,
{8},,
{32}E4,,,,
{8},,
{32},,,,
{8}Ch[4:1],,
{32},,,,,,,,
{8}7,8,6,1,4,3,5,2,8x,1,7,2h[4:2],,4,,6,2qq4[8:10],
{8},
{32}E6,,,,
{8},,
{32}E7,,,,
{8},,
{32}E6,,,,
{8},,
{32}E7,,,,
{8},
{24},,,6,5,4,3,2,1,
{32}8hx[8:5],A3,D4,A4,D5,A5,D6,A6,D7,A7,D8,D1,A1,D2,A2,D3,,,,,
{8},2-4[8:1],,5-1[8:1],,5h[4:1],,3h[4:1],,5,6,7q4[6:1],,7h[4:1],,5,,46,,3-1[8:1],,4,,5-7[8:1],,4,,
{32}1hx[8:5],A4,D4,A3,D3,A2,D2,D1,A8,D8,A7,D7,A6,D6,A5,D5,,,,,
{8},7-5[8:1],,4-8[8:1],,4h[4:1],,6h[4:1],,4,3,2p5[6:1],,2h[4:1],,4,6,2,
{16}8,1,7,2,6,3,5,4,6,2,
{24}83,7,6,45,3,2,
{32}5h[16:3]/1h[16:3],,,,,,,,
{8}2q5[8:3]/6,,,5>8[8:3],,,8V25[8:3],,,5-8[8:2],,8-3[8:2],,6,7,,
{8}6q1[8:3],,,1<4[8:3],,,4-7-1[8:3],,,1,,
{16}2,3,4h[8:1],,6h[8:1],,8h[8:1],,2h[8:1],,
{8}4p1[8:3],,,1<4[8:3],,,4-7-1[8:3],,,1-5[8:2],,5^2[8:2],,7,,,
{8}7p4[8:3],,,4>7[8:3],,,7V14[8:3],,,4-7[8:2],,7-1[6:1],,,,,
{24}2,1,8,7,6,5,4,3,2/1w5[16:5],,,,,,,,,,,,,,,,
{16}3/7-4b[8:1],,6,,17,,2,5,3V52[6:1],,1,,36,,7,,
{16}8/1-5b[8:1],,2,,16,,7,4,6^1[6:1],,3,,46,,2,,
{16}3/8-4b[8:1],,7,,28,,3,5,2V48[6:1],,6,,25,,6,,
{16}7/2-5b[8:1],,3,,2^7[8:1]/6,,7,,6,5,4,3,2,1,8,7,
{16}64,,2,,57,,7,1,7^4b[8:1],,7,5,7,,1,2,
{16}35,,7,,24,,2,8,2^5b[8:1],,2,4,2,,8,7,
{16}46,,2,,57,,7,1,7-4b[8:1],,7,5,7,,8,1,2,3,
{16}4hx[16:4]/8hx[16:1],,7,6hx[16:4],,3,2hx[16:1],,8,1hx[16:1]/7hx[16:1],,4,3hx[16:1]/5hx[16:1],,
{16}4/6-1b[8:1],,5,,36,,3,8,2V84[6:1],,6,,25,,7,,
{16}5/3-8b[8:1],,2,,36,,7,1,8^5[6:1],,5,4,3,2,1,8,
{16}7-4b[8:1],,1,,27,,2,5,3V51[6:1],,6,,37,,8,,
{16}2-5b[8:1]/7,,3,,26,,7,4,6-1[8:1],,3,,5-2b[8:1]/6,,3,7,5x-8b[8:1],,6,,3/5x,,4,7,2V48[8:1],,6,,25,,7,6,
{16}5-1b[8:1]/2,,3,,45,,3,8,2^5[8:1],,6,7,8,1,2,3,4,5,6,7,
{16}1x/8x,2,3,4,5x/1x,8,7,6,5x/4x,3,2,1,
{32}5bx/8,6,7,8,1,2,3,4,5,6,7,8,1,2,3,4,5/2bx,1,8,7,6,5,4,3,2,1,8,7,6,5,4,3,2bz6^1b[16:7]/6b-2^5[16:7],,,,,,,,,,,,,,,,,,,,,,,,
{32}A2,D3,A3,D4,A4,D5,A5,D6,A6,D7,A7,D8,A8,D1,A1,D2,A2,D3,A3,D4,
{8}8<1-4p5-8[8:31],,,,,
{4}E7,,E3,E5,,C,,,,,
{8}E1,C,E5,,,,,,
{8}4h[8:3],,,5p3[8:10],,,,,,,,,,,,,5h[8:3],,,6^4[16:5],,,,,7^1-5-3[2:1],,Ch[2:1],,,,,,
{8}5h[8:3],,,4q6[8:10],,,,,,,,,,,,,4h[8:3],,,3^5[16:5],,,,,2qq5b[2:1],,
{16}B6,,A6,,E7,,D7,,,,,,
{8}8h[8:3],,,
{16}1p7[8:10],A6,D6,A5,D5,A4,D4,A3,
{8},,,,,,,,,1h[8:3],,,2^8[16:5],,,,,3q8[3:1]*<8b[3:1],,,,,,,,
{8}1h[8:3],,,8q2[8:10],B4,E4,E5,A4,D4,,,,,,,,8h[8:3],,,7^1[16:5],,,,,6s2b[8:2],,,,,,
{24}5,4,3,2,1,8,
(999)
{384},
(146)
{16}7-4b[8:1]/2,,8,,1^4[8:1]/7,,2,5,1-6[8:1],,7,,13,,2,,
{16}4-8b[8:1]/7,,6,,2^7[8:1]/4,,3,6,2v5[8:1],,5,,27,,8,,
{16}6-1b[8:1]/4,,3,,4^1[8:1]/6,,3,3,
{32}7hx[8:3],,,A2,D2,A1,D1,A8,D8,D7,A6,D6,A5,D5,,,
{16}8x,7,6,5,4x/8x,1,2,3,4x/5x,6,7,8,1x/5x,4,3,2,
{16}1-4b[8:1],,6,,1/8^5[8:1],,7,3,8-3[8:1],,2,,78,,5,,
{16}6^1b[8:1]/2,,3,,
{32}4hx[8:3],,,A8,D1,A1,D2,A2,D3,A3,D4,D5,A5,D6,,,
{16}3,,8,,
{16}2-5b[8:1]/7,,3,,6^1[8:1]/2,,7,4,6^3[8:1],,3,,16,,8,,
{16}1x,2,3,4,5x/1x,8,7,6,5x/4x,3,2,1,8x/4x,5,6,7,
{8}8^3[8:1],7,6,5^8[8:1],4,3,2^5[16:3],4^7[16:3]*^7[16:3],6<3b[16:5],,
{16},,,,4,5,6,7,4x/8x,3,2,1,
{16}6hx[384:1],5x,7h,4,1h,2,4h,3,6h,1,7h,8,5h,4,7h,3,
{16}1h,4,7h,2,6h,1,5h,8,6h,4,8h,2,7h,1,5h,3,
{8}7V51[8:1],8,1,2V48[8:1],4,5,6^3[16:3],4^1[16:3]*^1[16:3],2<5b[16:5],,,,
{16}4,3,2,1,8x/4x,5,6,7,
{16}1hx[384:1],5x,3h,7,4h,6,2h,8,3h,7,5h,1,4h,8,2h,6,
{16}1x/5hx[384:1],2x/6hx[384:1],3x/7hx[384:1],4x/8hx[384:1],1hx[384:1]/5x,6x/2hx[384:1],7,8,
{32}1bx,2,3,4,5,6,7,8,
{32}1,2,3,4,5,6,7,8,
{8}1q1b[8:4]/5q5b[16:8],,,,,,,,
{32}3hx[8:5],A6,D6,A5,D5,A4,D4,D3,A2,D2,A1,D1,A8,D8,A7,D7,,,,,
{8},3-1[8:1],,8-4[8:1],,8h[4:1],,2h[4:1],,8,7,6q4[6:1],,6h[4:1],,3,,28,,1-3[8:1],,8,,7-5[8:1],,8,,
{32}6hx[8:5],A2,D3,A3,D4,A4,D5,A5,D6,D7,A7,D8,A8,D1,A1,D2,,,,,
{8},6-8[8:1],,1-5[8:1],,1h[4:1],,7h[4:1],,1,2,3p5[6:1],,3h[4:1],,6,,71,,
{16}2,1,2,1,2x,3,4,5,78,,7x/8x,6,5,4,1x/8x,
